×

¿Problemas para descargar con Mozilla, EDGE? Deshabilita la opción "Abrir vinculos en una pestaña nueva" tal como lo muestra ésta imagen.

El Refugio (2020) AMZN Web-DL 1080p Latino

200 vistas

Información de El Refugio (2020) AMZN Web-DL 1080p Latino

Datos de la película

  • Calidad: WEBDL
  • Audio: Español Latino E-AC3 5.1 AMAZON - Ingles E-AC3 5.1 AMAZON
  • Subtitulos: Español Latino SRT- FORZADOS SRT
  • Resolución: 1920x1040p
  • Formato: MKV
  • Codec: H.264
  • Encoder: Melkor
  • Mediainfo: Clic para Mostrar Datos Ver
  • El Refugio (2020) AMZN WebDL 1080p Latino[CMHDD].mkv
    Format                      : Matroska
    Format version              : Version 4
    File size                   : 7.98 GiB
    Duration                    : 1 h 47 min
    Overall bit rate            : 10.6 Mb/s
    Movie name                  : The Nest (2020) CinemaniaHDD.Net
    Encoded date                : UTC 2021-04-28 05:06:24
    Writing application         : mkvmerge v56.1.0 ('My Friend') 64-bit
    Writing library             : libebml v1.4.2 + libmatroska v1.6.4
    Attachments                 : CINEMANIAHD.png

    Video
    ID                          : 1
    Format                      : AVC
    Format/Info                 : Advanced Video Codec
    Format profile              : High@L4
    Format settings             : CABAC / 4 Ref Frames
    Format settings, CABAC      : Yes
    Format settings, Reference  : 4 frames
    Codec ID                    : V_MPEG4/ISO/AVC
    Duration                    : 1 h 47 min
    Bit rate mode               : Constant
    Bit rate                    : 8 718 kb/s
    Nominal bit rate            : 10 000 kb/s
    Width                       : 1 920 pixels
    Height                      : 1 040 pixels
    Display aspect ratio        : 1.85:1
    Frame rate mode             : Constant
    Frame rate                  : 23.976 (24000/1001) FPS
    Color space                 : YUV
    Chroma subsampling          : 4:2:0
    Bit depth                   : 8 bits
    Scan type                   : Progressive
    Bits/(Pixel*Frame)          : 0.182
    Stream size                 : 6.54 GiB (82%)
    Title                       : WEB HD1080p [CinemaniaHDD]
    Language                    : English
    Default                     : Yes
    Forced                      : No
    Color range                 : Limited
    Color primaries             : BT.709
    Transfer characteristics    : BT.709
    Matrix coefficients         : BT.709

    Audio #1
    ID                          : 2
    Format                      : E-AC-3
    Format/Info                 : Enhanced AC-3
    Commercial name             : Dolby Digital Plus
    Codec ID                    : A_EAC3
    Duration                    : 1 h 47 min
    Bit rate mode               : Constant
    Bit rate                    : 640 kb/s
    Channel(s)                  : 6 channels
    Channel layout              : L R C LFE Ls Rs
    Sampling rate               : 48.0 kHz
    Frame rate                  : 31.250 FPS (1536 SPF)
    Compression mode            : Lossy
    Stream size                 : 491 MiB (6%)
    Title                       : Español Latino [CinemaniaHDD]
    Language                    : Spanish
    Service kind                : Complete Main
    Default                     : Yes
    Forced                      : No

    Audio #2
    ID                          : 3
    Format                      : E-AC-3
    Format/Info                 : Enhanced AC-3
    Commercial name             : Dolby Digital Plus
    Codec ID                    : A_EAC3
    Duration                    : 1 h 47 min
    Bit rate mode               : Constant
    Bit rate                    : 640 kb/s
    Channel(s)                  : 6 channels
    Channel layout              : L R C LFE Ls Rs
    Sampling rate               : 48.0 kHz
    Frame rate                  : 31.250 FPS (1536 SPF)
    Compression mode            : Lossy
    Stream size                 : 491 MiB (6%)
    Title                       : Ingles [CinemaniaHDD]
    Language                    : English
    Service kind                : Complete Main
    Default                     : No
    Forced                      : No

    Audio #3
    ID                          : 4
    Format                      : AC-3
    Format/Info                 : Audio Coding 3
    Commercial name             : Dolby Digital
    Codec ID                    : A_AC3
    Duration                    : 1 h 47 min
    Bit rate mode               : Constant
    Bit rate                    : 640 kb/s
    Channel(s)                  : 6 channels
    Channel layout              : L R C LFE Ls Rs
    Sampling rate               : 48.0 kHz
    Frame rate                  : 31.250 FPS (1536 SPF)
    Compression mode            : Lossy
    Stream size                 : 491 MiB (6%)
    Title                       : Español Latino AC3[CinemaniaHDD]
    Language                    : Spanish
    Service kind                : Complete Main
    Default                     : No
    Forced                      : No

    Text #1
    ID                          : 5
    Format                      : UTF-8
    Codec ID                    : S_TEXT/UTF8
    Codec ID/Info               : UTF-8 Plain Text
    Duration                    : 1 h 33 min
    Bit rate                    : 0 b/s
    Count of elements           : 2
    Stream size                 : 23.0 Bytes (0%)
    Title                       : Forzados-SRT [CinemaniaHDD]
    Language                    : Spanish
    Default                     : Yes
    Forced                      : No

    Text #2
    ID                          : 6
    Format                      : UTF-8
    Codec ID                    : S_TEXT/UTF8
    Codec ID/Info               : UTF-8 Plain Text
    Duration                    : 1 h 39 min
    Bit rate                    : 45 b/s
    Count of elements           : 1226
    Stream size                 : 33.1 KiB (0%)
    Title                       : Español-SRT [CinemaniaHDD]
    Language                    : Spanish
    Default                     : No
    Forced                      : No

    Text #3
    ID                          : 7
    Format                      : UTF-8
    Codec ID                    : S_TEXT/UTF8
    Codec ID/Info               : UTF-8 Plain Text
    Duration                    : 1 h 42 min
    Bit rate                    : 55 b/s
    Count of elements           : 1366
    Stream size                 : 41.4 KiB (0%)
    Title                       : Ingles-SRT [CinemaniaHDD]
    Language                    : English
    Default                     : No
    Forced                      : No

    Menu
    00:00:00.000                : Opening Credits
    00:00:35.000                : Scene 2
    00:10:49.000                : Scene 3
    00:17:49.000                : Scene 4
    00:25:17.000                : Scene 5
    00:33:05.000                : Scene 6
    00:40:12.000                : Scene 7
    00:48:46.000                : Scene 8
    00:56:46.000                : Scene 9
    01:04:35.000                : Scene 10
    01:12:42.000                : Scene 11
    01:21:11.000                : Scene 12
    01:33:00.000                : Scene 13
    01:42:54.000                : End Credits

  • Peso: 7.98 GiB

Sinopsis

Descargar El Refugio (2020) AMZN Web-DL 1080p Latino. Rory es un emprendedor ambicioso que trae a su esposa e hijos estadounidenses a su país natal, Inglaterra, para explorar nuevas oportunidades comerciales. Después de abandonar el santuario de su entorno suburbano estadounidense seguro, la familia se sumerge en la desesperación de una Gran Bretaña arcaica de los 80 y su nueva vida inasequible en una casa solariega inglesa amenaza con destruir a la familia.

Ficha técnica

  • Titulo original: The Nest
  • Fecha de lanzamiento: 08-05-2020 (Canada, United Kingdom)
  • Director: Sean Durkin
  • Género: Drama, Romance

Video trailer de la película

Enlaces de descarga

Rip de Bluray

Descargar El Refugio (2020) AMZN Web-DL 1080p Latino




Aportes de DPeliculasHDmega la pass es:dpeliculashdmega.org Aportes de CinemaniaHD la pass es:cinemaniahdd.com
Guardado en : Drama , Romance

Películas relacionadas

descargar El Refugio (2020) AMZN Web-DL 1080p Latino WEBDL 1080p gratis, El Refugio (2020) AMZN Web-DL 1080p Latino WEBDL mega 1 link, El Refugio (2020) AMZN Web-DL 1080p Latino WEBDL pelicula completa, descargar El Refugio (2020) AMZN Web-DL 1080p Latino WEBDL gratis en mega.

El Refugio (2020) AMZN Web-DL 1080p Latino pelicula full hd, El Refugio (2020) AMZN Web-DL 1080p Latino mega latino, El Refugio (2020) AMZN Web-DL 1080p Latino 4k latino, El Refugio (2020) AMZN Web-DL 1080p Latino pelicula completa, El Refugio (2020) AMZN Web-DL 1080p Latino descargar gratis, descargar El Refugio (2020) AMZN Web-DL 1080p Latino pelicula latino, El Refugio (2020) AMZN Web-DL 1080p Latino 1 link mega, El Refugio (2020) AMZN Web-DL 1080p Latino 1 link google drive, El Refugio (2020) AMZN Web-DL 1080p Latino hd 1080p latino.
Comentarios 0