×

¿Problemas para descargar con Mozilla, EDGE? Deshabilita la opción "Abrir vinculos en una pestaña nueva" tal como lo muestra ésta imagen.

El puño del cóndor (2023) REMUX 1080p Latino

207 vistas

Información de El puño del cóndor (2023) REMUX 1080p Latino

Datos de la película

  • Calidad: Full 1080p
  • Audio: Se especifica abajo de la Sinopsis
  • Subtitulos: No
  • Resolución: 1920x1080p
  • Formato: MKV
  • Codec: H.264
  • Encoder: Melkor
  • Mediainfo: Clic para Mostrar Datos Ver
  • El Puño Del Condor (2023) REMUX 1080p Latino.mkv
    Format                      : Matroska
    Format version              : Version 4
    File size                   : 18.5 GiB
    Duration                    : 1 h 20 min
    Overall bit rate mode       : Variable
    Overall bit rate            : 32.9 Mb/s
    Movie name                  : El Puño Del Condor (2023) CinemaniaHDD.Net
    Encoded date                : UTC 2023-05-28 23:40:37
    Writing application         : mkvmerge v56.1.0 ('My Friend') 64-bit
    Writing library             : libebml v1.4.2 + libmatroska v1.6.4
    Attachments                 : CINEMANIAHD.png

    Video
    ID                          : 1
    ID in the original source m : 4113 (0x1011)
    Format                      : AVC
    Format/Info                 : Advanced Video Codec
    Format profile              : High@L4.1
    Format settings             : CABAC / 4 Ref Frames
    Format settings, CABAC      : Yes
    Format settings, Reference  : 4 frames
    Codec ID                    : V_MPEG4/ISO/AVC
    Duration                    : 1 h 20 min
    Bit rate mode               : Variable
    Bit rate                    : 29.0 Mb/s
    Maximum bit rate            : 35.0 Mb/s
    Width                       : 1 920 pixels
    Height                      : 1 080 pixels
    Display aspect ratio        : 16:9
    Frame rate mode             : Constant
    Frame rate                  : 23.976 (24000/1001) FPS
    Color space                 : YUV
    Chroma subsampling          : 4:2:0
    Bit depth                   : 8 bits
    Scan type                   : Progressive
    Bits/(Pixel*Frame)          : 0.582
    Stream size                 : 16.3 GiB (88%)
    Title                       : REMUX HD1080p [CinemaniaHDD]
    Default                     : Yes
    Forced                      : Yes
    Original source medium      : Blu-ray

    Audio #1
    ID                          : 2
    Format                      : DTS
    Format/Info                 : Digital Theater Systems
    Codec ID                    : A_DTS
    Duration                    : 1 h 20 min
    Bit rate mode               : Constant
    Bit rate                    : 1 509 kb/s
    Channel(s)                  : 6 channels
    Channel layout              : C L R Ls Rs LFE
    Sampling rate               : 48.0 kHz
    Frame rate                  : 93.750 FPS (512 SPF)
    Bit depth                   : 24 bits
    Compression mode            : Lossy
    Stream size                 : 867 MiB (5%)
    Title                       : Español Latino Core DTS [CinemaniaHDD]
    Language                    : Spanish
    Default                     : Yes
    Forced                      : Yes

    Audio #2
    ID                          : 3
    ID in the original source m : 4352 (0x1100)
    Format                      : DTS XLL
    Format/Info                 : Digital Theater Systems
    Commercial name             : DTS-HD Master Audio
    Codec ID                    : A_DTS
    Duration                    : 1 h 20 min
    Bit rate mode               : Variable
    Bit rate                    : 2 471 kb/s
    Channel(s)                  : 6 channels
    Channel layout              : C L R Ls Rs LFE
    Sampling rate               : 48.0 kHz
    Frame rate                  : 93.750 FPS (512 SPF)
    Bit depth                   : 16 bits
    Compression mode            : Lossless
    Stream size                 : 1.39 GiB (7%)
    Title                       : Español Latino DTS-HD MA [CinemaniaHDD]
    Language                    : Spanish
    Default                     : No
    Forced                      : No
    Original source medium      : Blu-ray

    Menu
    00:00:00.000                : Chapter 01
    00:11:38.614                : Chapter 02
    00:17:46.774                : Chapter 03
    00:26:18.577                : Chapter 04
    00:35:19.617                : Chapter 05
    00:49:34.096                : Chapter 06
    00:57:32.198                : Chapter 07
    01:05:32.261                : Chapter 08

  • Peso: 18.5 GiB

Sinopsis

Descargar El puño del cóndor (2023) REMUX 1080p Latino. Un grupo de artistas marciales de todo el mundo busca un libro que contenga los antiguos secretos de cómo superar los límites del cuerpo humano.

Español Latino DTS-HD & Core DTS 5.1 BD 

Ficha técnica

Video trailer de la película

Enlaces de descarga

Rip de Bluray

Descargar El puño del cóndor (2023) REMUX 1080p Latino


Aportes de DPeliculasHDmega la pass es:dpeliculashdmega.org Aportes de CinemaniaHD la pass es:cinemaniahdd.com Aportes recientes:cinemaniahdd.net
Guardado en : Action , Drama , Remux

Películas relacionadas

descargar El puño del cóndor (2023) REMUX 1080p Latino Full 1080p 1080p gratis, El puño del cóndor (2023) REMUX 1080p Latino Full 1080p mega 1 link, El puño del cóndor (2023) REMUX 1080p Latino Full 1080p pelicula completa, descargar El puño del cóndor (2023) REMUX 1080p Latino Full 1080p gratis en mega.

El puño del cóndor (2023) REMUX 1080p Latino pelicula full hd, El puño del cóndor (2023) REMUX 1080p Latino mega latino, El puño del cóndor (2023) REMUX 1080p Latino 4k latino, El puño del cóndor (2023) REMUX 1080p Latino pelicula completa, El puño del cóndor (2023) REMUX 1080p Latino descargar gratis, descargar El puño del cóndor (2023) REMUX 1080p Latino pelicula latino, El puño del cóndor (2023) REMUX 1080p Latino 1 link mega, El puño del cóndor (2023) REMUX 1080p Latino 1 link google drive, El puño del cóndor (2023) REMUX 1080p Latino hd 1080p latino.
Comentarios 0