×

¿Problemas para descargar con Mozilla, EDGE? Deshabilita la opción "Abrir vinculos en una pestaña nueva" tal como lo muestra ésta imagen.

El puño del cóndor (2023) HD 1080p Latino

201 vistas

Información de El puño del cóndor (2023) HD 1080p Latino

Datos de la película

  • Calidad: 1080p
  • Audio: Español Latino AC3 5.1 BLURAY
  • Subtitulos: No
  • Resolución: 1920x1080p
  • Formato: MKV
  • Codec: H.264
  • Encoder: Melkor
  • Mediainfo: Clic para Mostrar Datos Ver
  • El Puño Del Condor (2023) HD 1080p Latino.mkv
    Format                      : Matroska
    Format version              : Version 4
    File size                   : 2.19 GiB
    Duration                    : 1 h 20 min
    Overall bit rate            : 3 897 kb/s
    Movie name                  : El Puño Del Condor (2023) CinemaniaHDD.Net
    Encoded date                : UTC 2023-05-29 04:03:44
    Writing application         : mkvmerge v56.1.0 ('My Friend') 64-bit
    Writing library             : libebml v1.4.2 + libmatroska v1.6.4
    Attachments                 : CINEMANIAHD.png

    Video
    ID                          : 1
    Format                      : AVC
    Format/Info                 : Advanced Video Codec
    Format profile              : High@L4.1
    Format settings             : CABAC / 4 Ref Frames
    Format settings, CABAC      : Yes
    Format settings, Reference  : 4 frames
    Codec ID                    : V_MPEG4/ISO/AVC
    Duration                    : 1 h 20 min
    Bit rate                    : 3 500 kb/s
    Width                       : 1 920 pixels
    Height                      : 1 080 pixels
    Display aspect ratio        : 16:9
    Frame rate mode             : Constant
    Frame rate                  : 23.976 (24000/1001) FPS
    Color space                 : YUV
    Chroma subsampling          : 4:2:0
    Bit depth                   : 8 bits
    Scan type                   : Progressive
    Bits/(Pixel*Frame)          : 0.070
    Stream size                 : 1.93 GiB (88%)
    Title                       : HD1080p [CinemaniaHDD]
    Writing library             : x264 core 163 r3059 b684ebe0
    Encoding settings           : cabac=1 / ref=4 / deblock=1:-1:-1 / analyse=0x3:0x133 / me=umh / subme=9 / psy=1 / psy_rd=1.00:0.15 / mixed_ref=1 / me_range=16 / chroma_me=1 / trellis=2 / 8x8dct=1 / cqm=0 / deadzone=21,11 / fast_pskip=1 / chroma_qp_offset=-3 / threads=24 / lookahead_threads=2 / sliced_threads=0 / nr=0 / decimate=1 / interlaced=0 / bluray_compat=0 / constrained_intra=0 / bframes=3 / b_pyramid=2 / b_adapt=2 / b_bias=0 / direct=3 / weightb=1 / open_gop=0 / weightp=2 / keyint=240 / keyint_min=24 / scenecut=40 / intra_refresh=0 / rc_lookahead=60 / rc=abr / mbtree=1 / bitrate=3500 / ratetol=1.0 / qcomp=0.60 / qpmin=0 / qpmax=69 / qpstep=4 / vbv_maxrate=62500 / vbv_bufsize=78125 / nal_hrd=none / filler=0 / ip_ratio=1.40 / aq=1:1.00
    Default                     : Yes
    Forced                      : Yes
    Color range                 : Limited
    Color primaries             : BT.709
    Transfer characteristics    : BT.709
    Matrix coefficients         : BT.709

    Audio
    ID                          : 2
    Format                      : AC-3
    Format/Info                 : Audio Coding 3
    Commercial name             : Dolby Digital
    Codec ID                    : A_AC3
    Duration                    : 1 h 20 min
    Bit rate mode               : Constant
    Bit rate                    : 448 kb/s
    Channel(s)                  : 6 channels
    Channel layout              : L R C LFE Ls Rs
    Sampling rate               : 48.0 kHz
    Frame rate                  : 31.250 FPS (1536 SPF)
    Compression mode            : Lossy
    Delay relative to video     : -5 ms
    Stream size                 : 257 MiB (11%)
    Title                       : Español Latino [CinemaniaHDD]
    Language                    : Spanish
    Service kind                : Complete Main
    Default                     : Yes
    Forced                      : Yes

    Menu
    00:00:00.000                : :Chapter 1
    00:11:38.656                : :Chapter 2
    00:17:46.816                : :Chapter 3
    00:26:18.619                : :Chapter 4
    00:35:19.701                : :Chapter 5
    00:49:34.138                : :Chapter 6
    00:57:32.282                : :Chapter 7
    01:05:32.262                : :Chapter 8

  • Peso: 2.19 GiB

Sinopsis

Descargar El puño del cóndor (2023) HD 1080p Latino. Un grupo de artistas marciales de todo el mundo busca un libro que contenga los antiguos secretos de cómo superar los límites del cuerpo humano.

Ficha técnica

Video trailer de la película

Enlaces de descarga

Rip de Bluray

Descargar El puño del cóndor (2023) HD 1080p Latino




Aportes de DPeliculasHDmega la pass es:dpeliculashdmega.org Aportes de CinemaniaHD la pass es:cinemaniahdd.com Aportes recientes:cinemaniahdd.net
Guardado en : Acción , Drama , HD 1080p

Películas relacionadas

descargar El puño del cóndor (2023) HD 1080p Latino 1080p 1080p gratis, El puño del cóndor (2023) HD 1080p Latino 1080p mega 1 link, El puño del cóndor (2023) HD 1080p Latino 1080p pelicula completa, descargar El puño del cóndor (2023) HD 1080p Latino 1080p gratis en mega.

El puño del cóndor (2023) HD 1080p Latino pelicula full hd, El puño del cóndor (2023) HD 1080p Latino mega latino, El puño del cóndor (2023) HD 1080p Latino 4k latino, El puño del cóndor (2023) HD 1080p Latino pelicula completa, El puño del cóndor (2023) HD 1080p Latino descargar gratis, descargar El puño del cóndor (2023) HD 1080p Latino pelicula latino, El puño del cóndor (2023) HD 1080p Latino 1 link mega, El puño del cóndor (2023) HD 1080p Latino 1 link google drive, El puño del cóndor (2023) HD 1080p Latino hd 1080p latino.
Comentarios 0