×

¿Problemas para descargar con Mozilla, EDGE? Deshabilita la opción "Abrir vinculos en una pestaña nueva" tal como lo muestra ésta imagen.

El Profesor (2018) HD 1080p Latino

266 vistas

Información de El Profesor (2018) HD 1080p Latino

Datos de la película

  • Calidad: 1080p
  • Audio: Se especifica abajo de la Sinopsis
  • Subtitulos: Español Latino SRT- FORZADOS SRT
  • Resolución: 1920x1036p
  • Formato: MKV
  • Codec: H.264
  • Encoder: Melkor
  • Mediainfo: Clic para Mostrar Datos Ver
  • El Profesor (2018) HD 1080p Latino.mkv
    Format                      : Matroska
    Format version              : Version 4
    File size                   : 2.79 GiB
    Duration                    : 1 h 31 min
    Overall bit rate            : 4 361 kb/s
    Movie name                  : The Professor (2018) CinemaniaHDD.Net
    Encoded date                : UTC 2021-01-28 20:33:53
    Writing application         : mkvmerge v51.0.0 ('I Wish') 64-bit
    Writing library             : libebml v1.4.0 + libmatroska v1.6.2
    Attachments                 : CINEMANIAHD.png

    Video
    ID                          : 1
    Format                      : AVC
    Format/Info                 : Advanced Video Codec
    Format profile              : High@L4.1
    Format settings             : CABAC / 4 Ref Frames
    Format settings, CABAC      : Yes
    Format settings, Reference  : 4 frames
    Codec ID                    : V_MPEG4/ISO/AVC
    Duration                    : 1 h 31 min
    Bit rate                    : 3 500 kb/s
    Width                       : 1 920 pixels
    Height                      : 1 036 pixels
    Display aspect ratio        : 1.85:1
    Frame rate mode             : Constant
    Frame rate                  : 23.976 (24000/1001) FPS
    Color space                 : YUV
    Chroma subsampling          : 4:2:0
    Bit depth                   : 8 bits
    Scan type                   : Progressive
    Bits/(Pixel*Frame)          : 0.073
    Stream size                 : 2.22 GiB (79%)
    Title                       : HD1080p [CinemaniaHDD]
    Writing library             : x264 core 157 r2935 545de2f
    Encoding settings           : cabac=1 / ref=4 / deblock=1:-1:-1 / analyse=0x3:0x133 / me=umh / subme=9 / psy=1 / psy_rd=1.00:0.15 / mixed_ref=1 / me_range=16 / chroma_me=1 / trellis=2 / 8x8dct=1 / cqm=0 / deadzone=21,11 / fast_pskip=1 / chroma_qp_offset=-3 / threads=24 / lookahead_threads=2 / sliced_threads=0 / nr=0 / decimate=1 / interlaced=0 / bluray_compat=0 / constrained_intra=0 / bframes=3 / b_pyramid=2 / b_adapt=2 / b_bias=0 / direct=3 / weightb=1 / open_gop=0 / weightp=2 / keyint=240 / keyint_min=24 / scenecut=40 / intra_refresh=0 / rc_lookahead=60 / rc=abr / mbtree=1 / bitrate=3500 / ratetol=1.0 / qcomp=0.60 / qpmin=0 / qpmax=69 / qpstep=4 / vbv_maxrate=62500 / vbv_bufsize=78125 / nal_hrd=none / filler=0 / ip_ratio=1.40 / aq=1:1.00
    Default                     : Yes
    Forced                      : Yes
    Color range                 : Limited
    Color primaries             : BT.709
    Transfer characteristics    : BT.709
    Matrix coefficients         : BT.709

    Audio #1
    ID                          : 2
    Format                      : AC-3
    Format/Info                 : Audio Coding 3
    Commercial name             : Dolby Digital
    Codec ID                    : A_AC3
    Duration                    : 1 h 31 min
    Bit rate mode               : Constant
    Bit rate                    : 448 kb/s
    Channel(s)                  : 6 channels
    Channel layout              : L R C LFE Ls Rs
    Sampling rate               : 48.0 kHz
    Frame rate                  : 31.250 FPS (1536 SPF)
    Compression mode            : Lossy
    Delay relative to video     : -5 ms
    Stream size                 : 294 MiB (10%)
    Title                       : Español Latino [CinemaniaHDD]
    Language                    : Spanish
    Service kind                : Complete Main
    Default                     : Yes
    Forced                      : Yes

    Audio #2
    ID                          : 3
    Format                      : AC-3
    Format/Info                 : Audio Coding 3
    Commercial name             : Dolby Digital
    Codec ID                    : A_AC3
    Duration                    : 1 h 31 min
    Bit rate mode               : Constant
    Bit rate                    : 448 kb/s
    Channel(s)                  : 6 channels
    Channel layout              : L R C LFE Ls Rs
    Sampling rate               : 48.0 kHz
    Frame rate                  : 31.250 FPS (1536 SPF)
    Compression mode            : Lossy
    Delay relative to video     : -5 ms
    Stream size                 : 294 MiB (10%)
    Title                       : Ingles [CinemaniaHDD]
    Language                    : English
    Service kind                : Complete Main
    Default                     : No
    Forced                      : No

    Text #1
    ID                          : 4
    Format                      : UTF-8
    Codec ID                    : S_TEXT/UTF8
    Codec ID/Info               : UTF-8 Plain Text
    Duration                    : 1 h 11 min
    Bit rate                    : 0 b/s
    Count of elements           : 6
    Stream size                 : 247 Bytes (0%)
    Title                       : Forzados-SRT [CinemaniaHDD]
    Language                    : Spanish
    Default                     : Yes
    Forced                      : Yes

    Text #2
    ID                          : 5
    Format                      : UTF-8
    Codec ID                    : S_TEXT/UTF8
    Codec ID/Info               : UTF-8 Plain Text
    Duration                    : 1 h 24 min
    Bit rate                    : 54 b/s
    Count of elements           : 1283
    Stream size                 : 34.0 KiB (0%)
    Title                       : Español-SRT [CinemaniaHDD]
    Language                    : Spanish
    Default                     : No
    Forced                      : No

    Text #3
    ID                          : 6
    Format                      : UTF-8
    Codec ID                    : S_TEXT/UTF8
    Codec ID/Info               : UTF-8 Plain Text
    Duration                    : 1 h 27 min
    Bit rate                    : 63 b/s
    Count of elements           : 1417
    Stream size                 : 40.7 KiB (0%)
    Title                       : Ingles-SRT [CinemaniaHDD]
    Language                    : English
    Default                     : No
    Forced                      : No

    Menu
    00:00:00.000                : en:Chapter 1
    00:05:26.993                : en:Chapter 2
    00:09:19.100                : en:Chapter 3
    00:14:21.110                : en:Chapter 4
    00:23:02.131                : en:Chapter 5
    00:29:52.791                : en:Chapter 6
    00:34:16.471                : en:Chapter 7
    00:40:27.884                : en:Chapter 8
    00:45:19.926                : en:Chapter 9
    00:51:29.211                : en:Chapter 10
    00:54:27.931                : en:Chapter 11
    00:57:48.256                : en:Chapter 12
    01:02:55.897                : en:Chapter 13
    01:09:05.350                : en:Chapter 14
    01:16:59.240                : en:Chapter 15
    01:23:55.656                : en:Chapter 16

  • Peso: 2.79 GiB

Sinopsis

Descargar El Profesor (2018) HD 1080p Latino. Esta película presenta a Richard, un profesor universitario al que diagnostican una enfermedad que supone un cambio en su vida. A pesar de esta gran debilidad, decide comenzar una rutina de desenfreno: fuma, bebe alcohol y mantiene relaciones sexuales con quien desea.

Español Latino AC3 5.1 WebDL – Ingles AC3 5.1 Bluray

Ficha técnica

Video trailer de la película

Enlaces de descarga

Rip de Bluray

Descargar El Profesor (2018) HD 1080p Latino




Aportes de DPeliculasHDmega la pass es:dpeliculashdmega.org Aportes de CinemaniaHD la pass es:cinemaniahdd.com
Guardado en : Drama , Comedia , HD 1080p

Películas relacionadas

  • Abracadabra 2 (2022) D+ WEB-DL 4K UHD HDR Latino

    Abracadabra 2 (2022) D+ WEB-DL 4K UHD HDR Latino

    2022
    Abracadabra 2 (2022) D+ WEB-DL 4K UHD HDR Latino

    1h 45m 2022

    Descargar Abracadabra 2 (2022) D+ WEB-DL 4K UHD HDR Latino. Han pasado 29 años desde que alguien encendió...

    Director: Anne Fletcher

    Género: 4K HDR

    Actores: Whitney Peak

  • Abracadabra 2 (2022) D+ WEB-DL 1080p Latino

    Abracadabra 2 (2022) D+ WEB-DL 1080p Latino

    2022
    Abracadabra 2 (2022) D+ WEB-DL 1080p Latino

    1h 45m 2022

    Descargar Abracadabra 2 (2022) D+ WEB-DL 1080p Latino. Han pasado 29 años desde que alguien encendió...

    Director: Anne Fletcher

    Género: Comedia

    Actores: Whitney Peak

  • Hot Summer Nights (2017) 4K-SDR WEB-DL 2160p Latino

    Hot Summer Nights (2017) 4K-SDR WEB-DL 2160p Latino

    2018
    Hot Summer Nights (2017) 4K-SDR WEB-DL 2160p Latino

    1h 47m 2018

    Daniel es un tímido adolescente que comienza a vender marihuana, entrando en un mundo tentador pero...

    Director: Stephen W. Moore

    Género: 4K HDR

    Actores: Zack Shires

  • Hot Summer Nights (2017) AMZN WEB-DL 1080p Latino

    Hot Summer Nights (2017) AMZN WEB-DL 1080p Latino

    2018
    Hot Summer Nights (2017) AMZN WEB-DL 1080p Latino

    1h 47m 2018

    Daniel es un tímido adolescente que comienza a vender marihuana, entrando en un mundo tentador pero...

    Director: Stephen W. Moore

    Género: Comedia

    Actores: Zack Shires

descargar El Profesor (2018) HD 1080p Latino 1080p 1080p gratis, El Profesor (2018) HD 1080p Latino 1080p mega 1 link, El Profesor (2018) HD 1080p Latino 1080p pelicula completa, descargar El Profesor (2018) HD 1080p Latino 1080p gratis en mega.

El Profesor (2018) HD 1080p Latino pelicula full hd, El Profesor (2018) HD 1080p Latino mega latino, El Profesor (2018) HD 1080p Latino 4k latino, El Profesor (2018) HD 1080p Latino pelicula completa, El Profesor (2018) HD 1080p Latino descargar gratis, descargar El Profesor (2018) HD 1080p Latino pelicula latino, El Profesor (2018) HD 1080p Latino 1 link mega, El Profesor (2018) HD 1080p Latino 1 link google drive, El Profesor (2018) HD 1080p Latino hd 1080p latino.
Comentarios 0