El principe dragon (2018) Temporada 1 NF 1080p Latino

607 vistas
1 estrella2 estrellas3 estrellas4 estrellas5 estrellas (Ninguna valoración todavía)
Cargando…

Información de El principe dragon (2018) Temporada 1 NF 1080p Latino

Datos de la película

  • Calidad: WEBDL
  • Audio: Español Latino AC3 5.1 Netflix - Ingles AC3 5.1 Netflix
  • Subtitulos: Español Latino SRT- FORZADOS SRT
  • Resolución: 1920x1080
  • Formato: MKV
  • Codec: H.264
  • Encoder: cinemaniahd
  • Mediainfo: Clic para Mostrar Datos Ver
  • Príncipe de los dragones S01E01 NF 1080p Latino.mkv
    Format                      : Matroska
    Format version              : Version 4
    File size                   : 813 MiB
    Duration                    : 24 min 40 s
    Overall bit rate mode       : Variable
    Overall bit rate            : 4 606 kb/s
    Movie name                  : Príncipe de los dragones S01E01
    Encoded date                : UTC 2019-02-12 03:28:55 / UTC 2019-01-21 19:48:02
    Writing application         : mkvmerge v11.0.0 ('Alive') 64bit
    Writing library             : libebml v1.3.4 + libmatroska v1.4.5 / Lavf58.0.0

    Video
    ID                          : 1
    Format                      : AVC
    Format/Info                 : Advanced Video Codec
    Format profile              : [email protected]
    Format settings             : CABAC / 3 Ref Frames
    Format settings, CABAC      : Yes
    Format settings, ReFrames   : 3 frames
    Codec ID                    : V_MPEG4/ISO/AVC
    Duration                    : 24 min 40 s
    Bit rate mode               : Variable
    Bit rate                    : 3 746 kb/s
    Nominal bit rate            : 4 020 kb/s
    Maximum bit rate            : 6 030 kb/s
    Width                       : 1 920 pixels
    Height                      : 1 080 pixels
    Display aspect ratio        : 16:9
    Frame rate mode             : Constant
    Frame rate                  : 23.976 (24000/1001) FPS
    Color space                 : YUV
    Chroma subsampling          : 4:2:0
    Bit depth                   : 8 bits
    Scan type                   : Progressive
    Bits/(Pixel*Frame)          : 0.075
    Stream size                 : 661 MiB (81%)
    Title                       : CinemaniaHDD
    Writing library             : x264 core 148 r2715 7e75228
    Encoding settings           : cabac=1 / ref=3 / deblock=1:0:0 / analyse=0x1:0x111 / me=umh / subme=10 / psy=1 / psy_rd=1.00:0.00 / mixed_ref=1 / me_range=24 / chroma_me=1 / trellis=2 / 8x8dct=0 / cqm=0 / deadzone=21,11 / fast_pskip=1 / chroma_qp_offset=-2 / threads=8 / lookahead_threads=1 / sliced_threads=0 / nr=0 / decimate=1 / interlaced=0 / bluray_compat=0 / stitchable=1 / constrained_intra=0 / bframes=2 / b_pyramid=0 / b_adapt=2 / b_bias=0 / direct=3 / weightb=1 / open_gop=0 / weightp=2 / keyint=48 / keyint_min=25 / scenecut=0 / intra_refresh=0 / rc_lookahead=48 / rc=2pass / mbtree=1 / bitrate=4020 / ratetol=1.0 / qcomp=0.50 / qpmin=6 / qpmax=51 / qpstep=4 / cplxblur=20.0 / qblur=0.5 / vbv_maxrate=6030 / vbv_bufsize=8040 / nal_hrd=vbr / filler=0 / ip_ratio=1.40 / aq=1:1.00
    Default                     : Yes
    Forced                      : No
    Statistics Tags Issue       : mkvmerge v11.0.0 ('Alive') 64bit 2019-02-12 03:28:55 / mkvmerge v11.0.0 ('Alive') 64bit 2019-02-12 03:28:55 / UTC 2019-01-21 19:48:02
    FromStats_BitRate           : 3836064
    FromStats_Duration          : 00:24:40.479000000
    FromStats_FrameCount        : 35496
    FromStats_StreamSize        : 709901601

    Audio #1
    ID                          : 2
    Format                      : AC-3
    Format/Info                 : Audio Coding 3
    Commercial name             : Dolby Digital
    Codec ID                    : A_AC3
    Duration                    : 24 min 40 s
    Bit rate mode               : Constant
    Bit rate                    : 384 kb/s
    Channel(s)                  : 6 channels
    Channel layout              : L R C LFE Ls Rs
    Sampling rate               : 48.0 kHz
    Frame rate                  : 31.250 FPS (1536 SPF)
    Bit depth                   : 16 bits
    Compression mode            : Lossy
    Stream size                 : 67.8 MiB (8%)
    Title                       : Español latino [CinemaniaHDD]
    Language                    : Spanish
    Service kind                : Complete Main
    Default                     : Yes
    Forced                      : No
    Encoded date                : UTC 2019-01-21 19:49:37
    Statistics Tags Issue       : mkvmerge v11.0.0 ('Alive') 64bit 2019-02-12 03:28:55 / mkvmerge v11.0.0 ('Alive') 64bit 2019-02-12 03:28:55 / UTC 2019-01-21 19:48:02
    FromStats_BitRate           : 384000
    FromStats_Duration          : 00:24:40.736000000
    FromStats_FrameCount        : 46273
    FromStats_StreamSize        : 71075328

    Audio #2
    ID                          : 3
    Format                      : AC-3
    Format/Info                 : Audio Coding 3
    Commercial name             : Dolby Digital
    Codec ID                    : A_AC3
    Duration                    : 24 min 40 s
    Bit rate mode               : Constant
    Bit rate                    : 384 kb/s
    Channel(s)                  : 6 channels
    Channel layout              : L R C LFE Ls Rs
    Sampling rate               : 48.0 kHz
    Frame rate                  : 31.250 FPS (1536 SPF)
    Bit depth                   : 16 bits
    Compression mode            : Lossy
    Stream size                 : 67.8 MiB (8%)
    Title                       : Inglés [CinemaniaHDD]
    Language                    : English
    Service kind                : Complete Main
    Default                     : No
    Forced                      : No
    Encoded date                : UTC 2019-01-21 19:48:02
    Statistics Tags Issue       : mkvmerge v11.0.0 ('Alive') 64bit 2019-02-12 03:28:55 / mkvmerge v11.0.0 ('Alive') 64bit 2019-02-12 03:28:55 / UTC 2019-01-21 19:48:02
    FromStats_BitRate           : 384000
    FromStats_Duration          : 00:24:40.736000000
    FromStats_FrameCount        : 46273
    FromStats_StreamSize        : 71075328

    Text #1
    ID                          : 4
    Format                      : UTF-8
    Codec ID                    : S_TEXT/UTF8
    Codec ID/Info               : UTF-8 Plain Text
    Title                       : Forzados [CinemaniaHDD]
    Language                    : Spanish
    Default                     : Yes
    Forced                      : Yes
    Statistics Tags Issue       : mkvmerge v11.0.0 ('Alive') 64bit 2019-02-12 03:28:55 / mkvmerge v11.0.0 ('Alive') 64bit 2019-02-12 03:28:55 / UTC 2019-01-21 19:48:02
    FromStats_BitRate           : 0
    FromStats_Duration          : 00:23:07.886000000
    FromStats_FrameCount        : 4
    FromStats_StreamSize        : 97

    Text #2
    ID                          : 5
    Format                      : UTF-8
    Codec ID                    : S_TEXT/UTF8
    Codec ID/Info               : UTF-8 Plain Text
    Title                       : Español latino [CinemaniaHDD]
    Language                    : Spanish
    Default                     : No
    Forced                      : No
    Statistics Tags Issue       : mkvmerge v11.0.0 ('Alive') 64bit 2019-02-12 03:28:55 / mkvmerge v11.0.0 ('Alive') 64bit 2019-02-12 03:28:55 / UTC 2019-01-21 19:48:02
    FromStats_BitRate           : 41
    FromStats_Duration          : 00:23:07.886000000
    FromStats_FrameCount        : 228
    FromStats_StreamSize        : 7144

  • Peso: 800 Aproximado por Capitulo (5.76 GB Total)

Sinopsis

El príncipe dragón es una serie animada que trata sobre la amistad entre dos príncipes humanos y una asesina elfa. Entre los tres se crea un especial vínculo, que tendrá grandes obstáculos. La elfa tiene como misión acabar con la vida de ellos ya que, entre los dos reinos hay una guerra. Este peculiar trío comenzará una aventura para que se haga la paz entre los dos reinos.

Esta serie animada, dirigida por Patrick Graham, está producida por Gianccarlo Volpe (Star Wars: The Clone Wars)  para Netflix. Los diseños corren a cargo de Aaron Ehasz (Avatar: La Leyenda de Aang) y Justin Richmond (Death Jr.).

Ficha técnica

Video trailer de la película

Enlaces de descarga

Rip de Bluray

Descargar El principe dragon (2018) Temporada 1 NF 1080p Latino




Aportes de DPeliculasHDmega la pass es:dpeliculashdmega.org Aportes de CinemaniaHD la pass es:cinemaniahdd.com

Películas relacionadas

Comentarios 0