El Precio del Perdón (2017) REMUX 1080p Latino

103 vistas

Información de El Precio del Perdón (2017) REMUX 1080p Latino

Datos de la película

  • Calidad: Full 1080p
  • Audio: Español Latino AC3 2.0 WEB-DL - Ingles DTS 5.1 BLURAY
  • Subtitulos: Español Latino PGS - Ingles PGS
  • Resolución: 1920x1080p
  • Formato: MKV
  • Codec: H.264
  • Encoder: Melkor
  • Mediainfo: Clic para Mostrar Datos Ver
  • El Precio Del Perdon (2017) REMUX 1080p Latino.mkv
    Format                      : Matroska
    Format version              : Version 4
    File size                   : 28.0 GiB
    Duration                    : 2 h 0 min
    Overall bit rate mode       : Variable
    Overall bit rate            : 33.3 Mb/s
    Movie name                  : The Forgiven (2017) CinemaniaHDD.Net
    Encoded date                : UTC 2022-01-11 04:31:23
    Writing application         : mkvmerge v56.1.0 ('My Friend') 64-bit
    Writing library             : libebml v1.4.2 + libmatroska v1.6.4
    Attachments                 : CINEMANIAHD.png

    Video
    ID                          : 1
    Format                      : AVC
    Format/Info                 : Advanced Video Codec
    Format profile              : High@L4.1
    Format settings             : CABAC / 4 Ref Frames
    Format settings, CABAC      : Yes
    Format settings, Reference  : 4 frames
    Format settings, GOP        : M=3, N=12
    Codec ID                    : V_MPEG4/ISO/AVC
    Duration                    : 2 h 0 min
    Bit rate mode               : Variable
    Bit rate                    : 29.7 Mb/s
    Maximum bit rate            : 35.0 Mb/s
    Width                       : 1 920 pixels
    Height                      : 1 080 pixels
    Display aspect ratio        : 16:9
    Frame rate mode             : Constant
    Frame rate                  : 23.976 (24000/1001) FPS
    Color space                 : YUV
    Chroma subsampling          : 4:2:0
    Bit depth                   : 8 bits
    Scan type                   : Progressive
    Bits/(Pixel*Frame)          : 0.596
    Stream size                 : 24.9 GiB (89%)
    Title                       : REMUX HD1080p [CinemaniaHDD]
    Language                    : English
    Default                     : Yes
    Forced                      : Yes

    Audio #1
    ID                          : 2
    Format                      : AC-3
    Format/Info                 : Audio Coding 3
    Commercial name             : Dolby Digital
    Codec ID                    : A_AC3
    Duration                    : 2 h 0 min
    Bit rate mode               : Constant
    Bit rate                    : 256 kb/s
    Channel(s)                  : 2 channels
    Channel layout              : L R
    Sampling rate               : 48.0 kHz
    Frame rate                  : 31.250 FPS (1536 SPF)
    Compression mode            : Lossy
    Stream size                 : 220 MiB (1%)
    Title                       : Español Latino [CinemaniaHDD]
    Language                    : Spanish
    Service kind                : Complete Main
    Default                     : Yes
    Forced                      : Yes

    Audio #2
    ID                          : 3
    Format                      : DTS XLL
    Format/Info                 : Digital Theater Systems
    Commercial name             : DTS-HD Master Audio
    Codec ID                    : A_DTS
    Duration                    : 2 h 0 min
    Bit rate mode               : Variable
    Bit rate                    : 3 365 kb/s
    Channel(s)                  : 6 channels
    Channel layout              : C L R Ls Rs LFE
    Sampling rate               : 48.0 kHz
    Frame rate                  : 93.750 FPS (512 SPF)
    Bit depth                   : 24 bits
    Compression mode            : Lossless
    Stream size                 : 2.83 GiB (10%)
    Title                       : Ingles [CinemaniaHDD]
    Language                    : English
    Default                     : No
    Forced                      : No

    Text #1
    ID                          : 4
    Format                      : PGS
    Muxing mode                 : zlib
    Codec ID                    : S_HDMV/PGS
    Codec ID/Info               : Picture based subtitle format used on BDs/HD-DVDs
    Duration                    : 1 h 54 min
    Bit rate                    : 26.9 kb/s
    Count of elements           : 2714
    Stream size                 : 22.1 MiB (0%)
    Title                       : Español-PGS [CinemaniaHDD]
    Language                    : Spanish
    Default                     : No
    Forced                      : No

    Text #2
    ID                          : 5
    Format                      : PGS
    Muxing mode                 : zlib
    Codec ID                    : S_HDMV/PGS
    Codec ID/Info               : Picture based subtitle format used on BDs/HD-DVDs
    Duration                    : 1 h 59 min
    Bit rate                    : 29.9 kb/s
    Count of elements           : 3552
    Stream size                 : 25.4 MiB (0%)
    Title                       : Ingles-PGS [CinemaniaHDD]
    Language                    : English
    Default                     : No
    Forced                      : No

    Text #3
    ID                          : 6
    Format                      : UTF-8
    Codec ID                    : S_TEXT/UTF8
    Codec ID/Info               : UTF-8 Plain Text
    Duration                    : 1 h 56 min
    Bit rate                    : 1 b/s
    Count of elements           : 30
    Stream size                 : 1.34 KiB (0%)
    Title                       : Forzados-SRT [CinemaniaHDD]
    Language                    : Spanish
    Default                     : Yes
    Forced                      : Yes

    Text #4
    ID                          : 7
    Format                      : UTF-8
    Codec ID                    : S_TEXT/UTF8
    Codec ID/Info               : UTF-8 Plain Text
    Duration                    : 1 h 56 min
    Bit rate                    : 46 b/s
    Count of elements           : 1197
    Stream size                 : 39.8 KiB (0%)
    Title                       : Español-SRT [CinemaniaHDD]
    Language                    : Spanish
    Default                     : No
    Forced                      : No

    Menu
    00:00:00.000                : Chapter 1
    00:06:27.262                : Chapter 2
    00:12:40.885                : Chapter 3
    00:23:32.077                : Chapter 4
    00:32:52.012                : Chapter 5
    00:38:29.098                : Chapter 6
    00:45:23.179                : Chapter 7
    00:55:02.841                : Chapter 8
    01:03:41.901                : Chapter 9
    01:09:30.458                : Chapter 10
    01:15:44.832                : Chapter 11
    01:22:49.464                : Chapter 12
    01:31:38.493                : Chapter 13
    01:39:38.639                : Chapter 14
    01:49:51.794                : Chapter 15
    01:55:28.922                : Chapter 16

  • Peso: 28.0 GiB

Sinopsis

Descargar El Precio del Perdón (2017) REMUX 1080p Latino. En la Sudáfrica posterior al fin del apartheid, el arzobispo Desmond Tutu conoce a Piet Blomfeld, un asesino que busca redención.

Ficha técnica

  • Titulo original: The Forgiven
  • Fecha de lanzamiento: 09-03-2018 (South Africa, United Kingdom)
  • Director: Roland Joffé
  • Género: Remux, Suspenso

Video trailer de la película

Enlaces de descarga

Rip de Bluray

Descargar El Precio del Perdón (2017) REMUX 1080p Latino




Aportes de DPeliculasHDmega la pass es:dpeliculashdmega.org Aportes de CinemaniaHD la pass es:cinemaniahdd.com
Guardado en : Remux , Suspenso

Películas relacionadas

  • Eternals (2021) REMUX 1080p Latino

    Eternals (2021) REMUX 1080p Latino

    2021
    Eternals (2021) REMUX 1080p Latino

    2h 36m 2021

    Descargar Eternals (2021) REMUX 1080p Latino. Hace millones de años, los seres cósmicos conocidos como...

    Director: Simon Warnock

    Género: Acción

    Actores: Zain Al Rafeea

  • Snowpiercer (2021) Temporada 02 REMUX 1080p Latino

    Snowpiercer (2021) Temporada 02 REMUX 1080p Latino

    2020
    Snowpiercer (2021) Temporada 02 REMUX 1080p Latino

    0h 50m 2020

    Descargar Snowpiercer (2021) Temporada 02 REMUX 1080p Latino. Adaptación de la película de Bong Joon-ho....

    Director: Josh Friedman

    Género: Remux

    Actores: Steven Ogg

  • Atrapada En El Fondo Del Mar (2020) HD 1080p Latino

    Atrapada En El Fondo Del Mar (2020) HD 1080p Latino

    2020
    Atrapada En El Fondo Del Mar (2020) HD 1080p Latino

    1h 22m 2020

    Descargar Atrapada En El Fondo Del Mar (2020) HD 1080p Latino. Las hermanastras Ida y Tuva sufren un...

    Director: Joachim Hedén

    Género: Acción

    Actores: Trine Wiggen

El Precio del Perdón (2017) REMUX 1080p Latino pelicula full hd, El Precio del Perdón (2017) REMUX 1080p Latino mega latino, El Precio del Perdón (2017) REMUX 1080p Latino 4k latino, El Precio del Perdón (2017) REMUX 1080p Latino pelicula completa, El Precio del Perdón (2017) REMUX 1080p Latino descargar gratis, descargar El Precio del Perdón (2017) REMUX 1080p Latino pelicula latino, El Precio del Perdón (2017) REMUX 1080p Latino 1 link mega, El Precio del Perdón (2017) REMUX 1080p Latino 1 link google drive, El Precio del Perdón (2017) REMUX 1080p Latino hd 1080p latino.
Comentarios 0