×

¿Problemas para descargar con Mozilla, EDGE? Deshabilita la opción "Abrir vinculos en una pestaña nueva" tal como lo muestra ésta imagen.

El Precio del Perdón (2017) PLACEBO Full HD 1080p Latino

545 vistas

Información de El Precio del Perdón (2017) PLACEBO Full HD 1080p Latino

Datos de la película

  • Calidad: Full 1080p
  • Audio: Español Latino AC3 2.0 WEB-DL - Ingles DTS 5.1 BLURAY
  • Subtitulos: Español Latino PGS - Ingles PGS
  • Resolución: 1920x1080p
  • Formato: MKV
  • Codec: H.264
  • Encoder: Melkor
  • Mediainfo: Clic para Mostrar Datos Ver
  • El Precio Del Perdon (2017) PLACEBO 1080p Latino.mkv
    Format                      : Matroska
    Format version              : Version 4
    File size                   : 11.3 GiB
    Duration                    : 2 h 0 min
    Overall bit rate            : 13.5 Mb/s
    Movie name                  : The Forgiven (2017) CinemaniaHDD.Net
    Encoded date                : UTC 2022-01-12 19:02:57
    Writing application         : mkvmerge v56.1.0 ('My Friend') 64-bit
    Writing library             : libebml v1.4.2 + libmatroska v1.6.4
    Attachments                 : CINEMANIAHD.png

    Video
    ID                          : 1
    Format                      : AVC
    Format/Info                 : Advanced Video Codec
    Format profile              : High@L4.1
    Format settings             : CABAC / 4 Ref Frames
    Format settings, CABAC      : Yes
    Format settings, Reference  : 4 frames
    Codec ID                    : V_MPEG4/ISO/AVC
    Duration                    : 2 h 0 min
    Bit rate                    : 11.7 Mb/s
    Width                       : 1 920 pixels
    Height                      : 1 080 pixels
    Display aspect ratio        : 16:9
    Frame rate mode             : Constant
    Frame rate                  : 23.976 (24000/1001) FPS
    Color space                 : YUV
    Chroma subsampling          : 4:2:0
    Bit depth                   : 8 bits
    Scan type                   : Progressive
    Bits/(Pixel*Frame)          : 0.236
    Stream size                 : 9.85 GiB (87%)
    Title                       : Full HD1080p [CinemaniaHDD]
    Writing library             : x264 core 163 r3059 b684ebe0
    Encoding settings           : cabac=1 / ref=4 / deblock=1:0:0 / analyse=0x3:0x133 / me=tesa / subme=11 / psy=1 / psy_rd=1.00:0.00 / mixed_ref=1 / me_range=24 / chroma_me=1 / trellis=2 / 8x8dct=1 / cqm=0 / deadzone=21,11 / fast_pskip=0 / chroma_qp_offset=-2 / threads=24 / lookahead_threads=6 / sliced_threads=0 / nr=0 / decimate=1 / interlaced=0 / bluray_compat=0 / constrained_intra=0 / bframes=16 / b_pyramid=2 / b_adapt=2 / b_bias=0 / direct=3 / weightb=1 / open_gop=0 / weightp=2 / keyint=240 / keyint_min=24 / scenecut=40 / intra_refresh=0 / rc_lookahead=60 / rc=crf / mbtree=1 / crf=19.0 / qcomp=0.60 / qpmin=0 / qpmax=69 / qpstep=4 / vbv_maxrate=62500 / vbv_bufsize=78125 / crf_max=0.0 / nal_hrd=none / filler=0 / ip_ratio=1.40 / aq=1:1.00
    Default                     : Yes
    Forced                      : No
    Color range                 : Limited
    Color primaries             : BT.709
    Transfer characteristics    : BT.709
    Matrix coefficients         : BT.709

    Audio #1
    ID                          : 2
    Format                      : AC-3
    Format/Info                 : Audio Coding 3
    Commercial name             : Dolby Digital
    Codec ID                    : A_AC3
    Duration                    : 2 h 0 min
    Bit rate mode               : Constant
    Bit rate                    : 256 kb/s
    Channel(s)                  : 2 channels
    Channel layout              : L R
    Sampling rate               : 48.0 kHz
    Frame rate                  : 31.250 FPS (1536 SPF)
    Compression mode            : Lossy
    Stream size                 : 220 MiB (2%)
    Title                       : Español Latino [CinemaniaHDD]
    Language                    : Spanish
    Service kind                : Complete Main
    Default                     : Yes
    Forced                      : Yes

    Audio #2
    ID                          : 3
    Format                      : DTS
    Format/Info                 : Digital Theater Systems
    Codec ID                    : A_DTS
    Duration                    : 2 h 0 min
    Bit rate mode               : Constant
    Bit rate                    : 1 509 kb/s
    Channel(s)                  : 6 channels
    Channel layout              : C L R Ls Rs LFE
    Sampling rate               : 48.0 kHz
    Frame rate                  : 93.750 FPS (512 SPF)
    Bit depth                   : 24 bits
    Compression mode            : Lossy
    Stream size                 : 1.27 GiB (11%)
    Title                       : InglesIngles [CinemaniaHDD]
    Language                    : English
    Default                     : No
    Forced                      : No

    Text #1
    ID                          : 4
    Format                      : PGS
    Muxing mode                 : zlib
    Codec ID                    : S_HDMV/PGS
    Codec ID/Info               : Picture based subtitle format used on BDs/HD-DVDs
    Duration                    : 1 h 54 min
    Bit rate                    : 26.9 kb/s
    Count of elements           : 2714
    Stream size                 : 22.1 MiB (0%)
    Title                       : Español-PGS [CinemaniaHDD]
    Language                    : Spanish
    Default                     : No
    Forced                      : No

    Text #2
    ID                          : 5
    Format                      : PGS
    Muxing mode                 : zlib
    Codec ID                    : S_HDMV/PGS
    Codec ID/Info               : Picture based subtitle format used on BDs/HD-DVDs
    Duration                    : 1 h 59 min
    Bit rate                    : 29.9 kb/s
    Count of elements           : 3552
    Stream size                 : 25.4 MiB (0%)
    Title                       : Ingles-PGS [CinemaniaHDD]
    Language                    : English
    Default                     : No
    Forced                      : No

    Text #3
    ID                          : 6
    Format                      : UTF-8
    Codec ID                    : S_TEXT/UTF8
    Codec ID/Info               : UTF-8 Plain Text
    Duration                    : 1 h 56 min
    Bit rate                    : 1 b/s
    Count of elements           : 30
    Stream size                 : 1.34 KiB (0%)
    Title                       : Forzados-SRT [CinemaniaHDD]
    Language                    : Spanish
    Default                     : Yes
    Forced                      : Yes

    Text #4
    ID                          : 7
    Format                      : UTF-8
    Codec ID                    : S_TEXT/UTF8
    Codec ID/Info               : UTF-8 Plain Text
    Duration                    : 1 h 56 min
    Bit rate                    : 46 b/s
    Count of elements           : 1197
    Stream size                 : 39.8 KiB (0%)
    Title                       : Español-SRT [CinemaniaHDD]
    Language                    : Spanish
    Default                     : No
    Forced                      : No

    Menu
    00:00:00.000                : Chapter 1
    00:06:27.262                : Chapter 2
    00:12:40.885                : Chapter 3
    00:23:32.077                : Chapter 4
    00:32:52.012                : Chapter 5
    00:38:29.098                : Chapter 6
    00:45:23.179                : Chapter 7
    00:55:02.841                : Chapter 8
    01:03:41.901                : Chapter 9
    01:09:30.458                : Chapter 10
    01:15:44.832                : Chapter 11
    01:22:49.464                : Chapter 12
    01:31:38.493                : Chapter 13
    01:39:38.639                : Chapter 14
    01:49:51.794                : Chapter 15
    01:55:28.922                : Chapter 16

  • Peso: 11.3 GiB

Sinopsis

Descargar El Precio del Perdón (2017) PLACEBO Full HD 1080p Latino. En la Sudáfrica posterior al fin del apartheid, el arzobispo Desmond Tutu conoce a Piet Blomfeld, un asesino que busca redención.

Ficha técnica

Video trailer de la película

Enlaces de descarga

Rip de Bluray

Descargar El Precio del Perdón (2017) PLACEBO Full HD 1080p Latino




Aportes de DPeliculasHDmega la pass es:dpeliculashdmega.org Aportes de CinemaniaHD la pass es:cinemaniahdd.com

Películas relacionadas

descargar El Precio del Perdón (2017) PLACEBO Full HD 1080p Latino Full 1080p 1080p gratis, El Precio del Perdón (2017) PLACEBO Full HD 1080p Latino Full 1080p mega 1 link, El Precio del Perdón (2017) PLACEBO Full HD 1080p Latino Full 1080p pelicula completa, descargar El Precio del Perdón (2017) PLACEBO Full HD 1080p Latino Full 1080p gratis en mega.

El Precio del Perdón (2017) PLACEBO Full HD 1080p Latino pelicula full hd, El Precio del Perdón (2017) PLACEBO Full HD 1080p Latino mega latino, El Precio del Perdón (2017) PLACEBO Full HD 1080p Latino 4k latino, El Precio del Perdón (2017) PLACEBO Full HD 1080p Latino pelicula completa, El Precio del Perdón (2017) PLACEBO Full HD 1080p Latino descargar gratis, descargar El Precio del Perdón (2017) PLACEBO Full HD 1080p Latino pelicula latino, El Precio del Perdón (2017) PLACEBO Full HD 1080p Latino 1 link mega, El Precio del Perdón (2017) PLACEBO Full HD 1080p Latino 1 link google drive, El Precio del Perdón (2017) PLACEBO Full HD 1080p Latino hd 1080p latino.
Comentarios 0