El Potro (2018) NF 1080p Latino

914 vistas
1 estrella2 estrellas3 estrellas4 estrellas5 estrellas (Ninguna valoración todavía)
Cargando…

Información de El Potro (2018) NF 1080p Latino

Datos de la película

  • Calidad: WEBDL
  • Audio: Español Latino AC3 5.1 Netflix
  • Subtitulos: Español Latino SRT - Ingles SRT
  • Resolución: 1920x1080
  • Formato: MKV
  • Codec: H.264
  • Encoder: cinemaniahd
  • Mediainfo: Clic para Mostrar Datos Ver
  • El Potro (2018) NF 1080p Latino.mkv
    Format                      : Matroska
    Format version              : Version 4
    File size                   : 4.28 GiB
    Duration                    : 2 h 2 min
    Overall bit rate mode       : Variable
    Overall bit rate            : 5 016 kb/s
    Movie name                  : Cinemaniahdd.net
    Encoded date                : UTC 2019-01-05 19:47:57 / UTC 2018-11-08 07:06:14
    Writing application         : mkvmerge v29.0.0 ('Like It Or Not') 64-bit
    Writing library             : libebml v1.3.6 + libmatroska v1.4.9 / Lavf58.0.0

    Video
    ID                          : 1
    Format                      : AVC
    Format/Info                 : Advanced Video Codec
    Format profile              : [email protected]
    Format settings             : CABAC / 3 Ref Frames
    Format settings, CABAC      : Yes
    Format settings, ReFrames   : 3 frames
    Codec ID                    : V_MPEG4/ISO/AVC
    Duration                    : 2 h 2 min
    Bit rate mode               : Variable
    Bit rate                    : 4 640 kb/s
    Maximum bit rate            : 6 960 kb/s
    Width                       : 1 920 pixels
    Height                      : 1 080 pixels
    Display aspect ratio        : 16:9
    Frame rate mode             : Constant
    Frame rate                  : 23.976 (24000/1001) FPS
    Color space                 : YUV
    Chroma subsampling          : 4:2:0
    Bit depth                   : 8 bits
    Scan type                   : Progressive
    Bits/(Pixel*Frame)          : 0.093
    Stream size                 : 3.95 GiB (92%)
    Writing library             : x264 core 148 r2715 7e75228
    Encoding settings           : cabac=1 / ref=3 / deblock=1:0:0 / analyse=0x1:0x111 / me=umh / subme=10 / psy=1 / psy_rd=1.00:0.00 / mixed_ref=1 / me_range=24 / chroma_me=1 / trellis=2 / 8x8dct=0 / cqm=0 / deadzone=21,11 / fast_pskip=1 / chroma_qp_offset=-2 / threads=8 / lookahead_threads=1 / sliced_threads=0 / nr=0 / decimate=1 / interlaced=0 / bluray_compat=0 / stitchable=1 / constrained_intra=0 / bframes=2 / b_pyramid=0 / b_adapt=2 / b_bias=0 / direct=3 / weightb=1 / open_gop=0 / weightp=2 / keyint=48 / keyint_min=25 / scenecut=0 / intra_refresh=0 / rc_lookahead=48 / rc=2pass / mbtree=1 / bitrate=4640 / ratetol=1.0 / qcomp=0.50 / qpmin=6 / qpmax=51 / qpstep=4 / cplxblur=20.0 / qblur=0.5 / vbv_maxrate=6960 / vbv_bufsize=9280 / nal_hrd=vbr / filler=0 / ip_ratio=1.40 / aq=1:1.00
    Default                     : Yes
    Forced                      : No

    Audio
    ID                          : 2
    Format                      : AC-3
    Format/Info                 : Audio Coding 3
    Commercial name             : Dolby Digital
    Codec ID                    : A_AC3
    Duration                    : 2 h 2 min
    Bit rate mode               : Constant
    Bit rate                    : 384 kb/s
    Channel(s)                  : 6 channels
    Channel layout              : L R C LFE Ls Rs
    Sampling rate               : 48.0 kHz
    Frame rate                  : 31.250 FPS (1536 SPF)
    Bit depth                   : 16 bits
    Compression mode            : Lossy
    Stream size                 : 336 MiB (8%)
    Language                    : Spanish
    Service kind                : Complete Main
    Default                     : Yes
    Forced                      : No
    Encoded date                : UTC 2018-11-08 07:06:14

    Text #1
    ID                          : 3
    Format                      : UTF-8
    Codec ID                    : S_TEXT/UTF8
    Codec ID/Info               : UTF-8 Plain Text
    Duration                    : 1 h 55 min
    Bit rate                    : 44 b/s
    Count of elements           : 1343
    Stream size                 : 37.9 KiB (0%)
    Title                       : English
    Language                    : English
    Default                     : Yes
    Forced                      : Yes

    Text #2
    ID                          : 4
    Format                      : UTF-8
    Codec ID                    : S_TEXT/UTF8
    Codec ID/Info               : UTF-8 Plain Text
    Duration                    : 1 h 58 min
    Bit rate                    : 53 b/s
    Count of elements           : 1624
    Stream size                 : 46.7 KiB (0%)
    Title                       : Spanish
    Language                    : Spanish
    Default                     : No
    Forced                      : No

  • Peso: 4.28 GiB

Sinopsis

El sueño de Rodrigo siempre ha sido cantar. Sus padres lo acompañan en su deseo y Rodrigo ingresa en el ambiente de la música tropical como cantante romántico. El impacto generado es muy grande debido tanto a su juventud y belleza, como también a su magnetismo y carisma. Cuando el éxito parecía que podía estar al alcance de sus manos, lo sorprende la devastadora muerte de su padre y se recluye junto a su familia en su provincia natal, Córdoba. Durante ese período de duelo, Rodrigo comprenderá que la vida sigue y que lo más importante que tiene para salir adelante es la música, pero esta vez será la que él lleva en la sangre: el cuarteto

Ficha técnica

Video trailer de la película

Enlaces de descarga

Rip de Bluray

Descargar El Potro (2018) NF 1080p Latino




Aportes de DPeliculasHDmega la pass es:dpeliculashdmega.org Aportes de CinemaniaHD la pass es:cinemaniahdd.com
Guardado en : Drama , Peliculas Netflix

Películas relacionadas

  • The Punisher (2019) Temporada 2 NF 1080p Latino

    2017
    The Punisher (2019) Temporada 2 NF 1080p Latino

    5.0 0h 53m 2017

    Por ahora, Netflix no ha revelado el contenido de la temporada 2 de "The Punisher", ya que lo único...

    Director: Steve Lightfoot

    Género: Action & Adventure

    Actores: Josh Stewart

  • IO (2019) NF 1080p Latino

    2019
    IO (2019) NF 1080p Latino

    0.0 1h 36m 2019

    Descargar IO (2019) NF 1080p Latino, Mega, Google Drive, Torrent. Sam, una de las pocas supervivientes...

    Director: Jonathan Helpert

    Género: Ciencia ficción

    Actores: Margaret Qualley

  • Close (2019) NF 1080p Latino

    2019
    Close (2019) NF 1080p Latino

    0.0 1h 34m 2019

    A Sam (Rapace), una experta guardaespaldas acostumbrada a territorios en guerra, le asignan un trabajo...

    Director: Vicky Jewson

    Género: Acción

    Actores: Sophie Nélisse

  • La buena esposa (2017) Web-DL 1080p Latino

    2018
    La buena esposa (2017) Web-DL 1080p Latino

    0.0 1h 40m 2018

    Descargar La buena esposa (2017) Web-DL 1080p Latino, Mega, Google Drive, Torrent. Joan Castleman (Glenn...

    Director: Björn Runge

    Género: Drama

    Actores: Twinnie Lee Moore

  • Peloton (1986) Full 1080p Latino

    1986
    Peloton (1986) Full 1080p Latino

    0.0 2h 0m 1986

    Descargar Peloton (1986) Full 1080p Latino, Mega, Google Drive, Torrent. Chris Taylor es un ingenuo joven...

    Director: Tim Minear

    Género: Acción

    Actores: Willem Dafoe

Comentarios 0