El portal del guerrero (2016) 1080p Latino

1.818 vistas
1 estrella2 estrellas3 estrellas4 estrellas5 estrellas (3 votos, promedio: 5,00 de 5)
Cargando…

Información de El portal del guerrero (2016) 1080p Latino

Datos de la película

  • Calidad: 1080p
  • Audio: Español Latino AC3 2.0 Capturado -Chino AC3 5.1 BLURAY
  • Subtitulos: No
  • Resolución: 1920x804p
  • Formato: MKV
  • Codec: H.264
  • Encoder: CinefiloCool
  • Mediainfo: Clic para Mostrar Datos Ver
  • Format                      : Matroska
    Format version              : Version 4 / Version 2
    File size                   : 3.08 GiB
    Duration                    : 1 h 47 min
    Overall bit rate            : 4 107 kb/s
    Movie name                  : CinemaniaHDD.Net
    Encoded date                : UTC 2018-10-03 02:50:53 / UTC 2018-10-03T00:35:53Z
    Writing application         : mkvmerge v25.0.0 ('Prog Noir') 64-bit
    Writing library             : libebml v1.3.6 + libmatroska v1.4.9 / Lavf57.7.2

    Video
    ID                          : 1
    Format                      : AVC
    Format/Info                 : Advanced Video Codec
    Format profile              : High@L4.1
    Format settings             : CABAC / 5 Ref Frames
    Format settings, CABAC      : Yes
    Format settings, RefFrames  : 5 frames
    Codec ID                    : V_MPEG4/ISO/AVC
    Duration                    : 1 h 47 min
    Bit rate                    : 3 322 kb/s
    Nominal bit rate            : 3 500 kb/s
    Width                       : 1 920 pixels
    Height                      : 804 pixels
    Display aspect ratio        : 2.40:1
    Frame rate mode             : Constant
    Frame rate                  : 24.000 FPS
    Color space                 : YUV
    Chroma subsampling          : 4:2:0
    Bit depth                   : 8 bits
    Scan type                   : Progressive
    Bits/(Pixel*Frame)          : 0.090
    Stream size                 : 2.49 GiB (81%)
    Title                       : HD1080p [Bluray]
    Writing library             : x264 core 155 r2893 b00bcaf
    Encoding settings           : cabac=1 / ref=5 / deblock=1:0:0 / analyse=0x3:0x133 / me=umh / subme=9 / psy=1 / psy_rd=1.00:0.00 / mixed_ref=1 / me_range=16 / chroma_me=1 / trellis=2 / 8x8dct=1 / cqm=0 / deadzone=21,11 / fast_pskip=1 / chroma_qp_offset=-2 / threads=25 / lookahead_threads=2 / sliced_threads=0 / nr=0 / decimate=1 / interlaced=0 / bluray_compat=0 / constrained_intra=0 / bframes=3 / b_pyramid=2 / b_adapt=2 / b_bias=0 / direct=3 / weightb=1 / open_gop=0 / weightp=2 / keyint=240 / keyint_min=24 / scenecut=40 / intra_refresh=0 / rc_lookahead=60 / rc=abr / mbtree=1 / bitrate=3500 / ratetol=1.0 / qcomp=0.60 / qpmin=0 / qpmax=69 / qpstep=4 / vbv_maxrate=62500 / vbv_bufsize=78125 / nal_hrd=none / filler=0 / ip_ratio=1.40 / aq=1:1.00
    Default                     : Yes
    Forced                      : No
    Color range                 : Limited
    Color primaries             : BT.709
    Transfer characteristics    : BT.709
    Matrix coefficients         : BT.709
    Statistics Tags Issue       : mkvmerge v25.0.0 ('Prog Noir') 64-bit 2018-10-03 02:50:53 / mkvmerge v25.0.0 ('Prog Noir') 64-bit 2018-10-03 02:50:53 / UTC 2018-10-03T00:35:53Z
    FromStats_BitRate           : 3402301
    FromStats_Duration          : 01:47:18.959000000
    FromStats_FrameCount        : 154535
    FromStats_StreamSize        : 2738409977

    Audio #1
    ID                          : 2
    Format                      : AC-3
    Format/Info                 : Audio Coding 3
    Format settings, Endianness : Big
    Codec ID                    : A_AC3
    Duration                    : 1 h 47 min
    Bit rate mode               : Constant
    Bit rate                    : 256 kb/s
    Channel(s)                  : 2 channels
    Channel positions           : Front: L R
    Sampling rate               : 48.0 kHz
    Frame rate                  : 31.250 FPS (1536 SPF)
    Bit depth                   : 16 bits
    Compression mode            : Lossy
    Delay relative to video     : -5 ms
    Stream size                 : 197 MiB (6%)
    Title                       : AC3_2.0_Capturado_Esp
    Language                    : Spanish
    Service kind                : Complete Main
    Default                     : Yes
    Forced                      : No
    Statistics Tags Issue       : mkvmerge v25.0.0 ('Prog Noir') 64-bit 2018-10-03 02:50:53 / mkvmerge v25.0.0 ('Prog Noir') 64-bit 2018-10-03 02:50:53 / UTC 2018-10-03T00:35:53Z
    FromStats_BitRate           : 256000
    FromStats_Duration          : 01:47:09.248000000
    FromStats_FrameCount        : 200914
    FromStats_StreamSize        : 205735936

    Audio #2
    ID                          : 3
    Format                      : AC-3
    Format/Info                 : Audio Coding 3
    Format settings, Endianness : Big
    Codec ID                    : A_AC3
    Duration                    : 1 h 47 min
    Bit rate mode               : Constant
    Bit rate                    : 448 kb/s
    Channel(s)                  : 6 channels
    Channel positions           : Front: L C R, Side: L R, LFE
    Sampling rate               : 48.0 kHz
    Frame rate                  : 31.250 FPS (1536 SPF)
    Bit depth                   : 16 bits
    Compression mode            : Lossy
    Stream size                 : 344 MiB (11%)
    Title                       : AC3_5.1_Bluray_Chi
    Language                    : Chinese
    Service kind                : Complete Main
    Default                     : No
    Forced                      : No
    Statistics Tags Issue       : mkvmerge v25.0.0 ('Prog Noir') 64-bit 2018-10-03 02:50:53 / mkvmerge v25.0.0 ('Prog Noir') 64-bit 2018-10-03 02:50:53 / UTC 2018-10-03T00:35:53Z
    FromStats_BitRate           : 448000
    FromStats_Duration          : 01:47:09.216000000
    FromStats_FrameCount        : 200913
    FromStats_StreamSize        : 360036096

    Menu
    00:00:00.000                : :00:00:00.000
    00:05:58.042                : :00:05:58.000
    00:18:01.125                : :00:18:01.125
    00:33:22.125                : :00:33:22.000
    00:42:41.000                : :00:42:41.000
    00:59:18.625                : :00:59:18.625
    01:07:28.833                : :01:07:28.750
    01:19:43.833                : :01:19:43.792
    01:28:22.750                : :01:28:22.667
    01:37:28.708                : :01:37:28.625

  • Peso: 3.08 GiB

Sinopsis

Jack Bronson, un joven americano, es mágicamente transportado a la antigua China, donde tendrá que aprender a convertir sus habilidades con los videojuegos en las de un guerrero de Kung Fu, para rescatar a la bella princesa de las garras de un malvado rey bárbaro.

Ficha técnica

  • Titulo original: 勇士之门
  • Fecha de lanzamiento: 18-11-2016 (Canada, China)
  • Director: Matthias Hoene
  • Género: Acción, Aventura, HD 1080p
  • Puntuación: 5.0 3 votos
  • Duración:
    1h 34m

Video trailer de la película

Enlaces de descarga

Rip de Bluray

Descargar El portal del guerrero (2016) 1080p Latino




Aportes de DPeliculasHDmega la pass es:dpeliculashdmega.org Aportes de CinemaniaHD la pass es:cinemaniahdd.com
Guardado en : Acción , Aventura , HD 1080p

Películas relacionadas

  • El Justiciero 2 (2018) Full 1080p Latino

    2018
    El Justiciero 2 (2018) Full 1080p Latino

    0.0 2h 0m 2018

    Descargar El Justiciero 2 (2018) Full 1080p Latino, Mega, Google Drive. Robert McCall (Denzel Washington)...

    Director: Donald Sparks

    Género: Acción

    Actores: Wesley Pereira

  • Titanes (2018) Temporada 01 Web-DL 1080p Subtitulado

    2018
    Titanes (2018) Temporada 01 Web-DL 1080p Subtitulado

    3.3 0h 43m 2018

    Descargar Titanes (2018) Temporada 01 Web-DL 1080p Subtitulado; Mega, Google Drive. Un equipo de jóvenes...

    Director: Greg Berlanti

    Género: Action & Adventure

    Actores: Teagan Croft

  • El Justiciero 2 (2018) 1080p Latino

    2018
    El Justiciero 2 (2018) 1080p Latino

    2.5 2h 0m 2018

    Descargar El Justiciero 2 (2018) 1080p Latino, Mega, Google Drive. Robert McCall (Denzel Washington)...

    Director: Donald Sparks

    Género: Acción

    Actores: Wesley Pereira

Comentarios 0