×

¿Problemas para descargar con Mozilla, EDGE? Deshabilita la opción "Abrir vinculos en una pestaña nueva" tal como lo muestra ésta imagen.

El Poder Del Perro (2021) PLACEBO Full HD 1080p Latino

33 vistas

Información de El Poder Del Perro (2021) PLACEBO Full HD 1080p Latino

Datos de la película

  • Calidad: Full 1080p
  • Audio: Español Latino AC3 5.1 WEB-DL - Ingles DTS 5.1 BLURAY
  • Subtitulos: Español Latino SRT- FORZADOS SRT
  • Resolución: 1920x1080p
  • Formato: MKV
  • Codec: H.264
  • Encoder: Melkor
  • Mediainfo: Clic para Mostrar Datos Ver
  • El Poder Del Perro (2021) PLACEBO 1080p Latino.mkv
    Format                      : Matroska
    Format version              : Version 4
    File size                   : 5.19 GiB
    Duration                    : 2 h 7 min
    Overall bit rate            : 5 809 kb/s
    Movie name                  : The Power Of The Dog (2021) CinemaniaHDD.Net
    Encoded date                : UTC 2022-11-08 05:17:12
    Writing application         : mkvmerge v56.1.0 ('My Friend') 64-bit
    Writing library             : libebml v1.4.2 + libmatroska v1.6.4
    Attachments                 : CINEMANIAHD.png

    Video
    ID                          : 1
    Format                      : AVC
    Format/Info                 : Advanced Video Codec
    Format profile              : High@L4.1
    Format settings             : CABAC / 4 Ref Frames
    Format settings, CABAC      : Yes
    Format settings, Reference  : 4 frames
    Codec ID                    : V_MPEG4/ISO/AVC
    Duration                    : 2 h 7 min
    Bit rate                    : 3 651 kb/s
    Width                       : 1 920 pixels
    Height                      : 1 080 pixels
    Display aspect ratio        : 16:9
    Frame rate mode             : Constant
    Frame rate                  : 23.976 (24000/1001) FPS
    Color space                 : YUV
    Chroma subsampling          : 4:2:0
    Bit depth                   : 8 bits
    Scan type                   : Progressive
    Bits/(Pixel*Frame)          : 0.073
    Stream size                 : 3.26 GiB (63%)
    Title                       : Full HD1080p [CinemaniaHDD]
    Writing library             : x264 core 163 r3059 b684ebe0
    Encoding settings           : cabac=1 / ref=4 / deblock=1:0:0 / analyse=0x3:0x133 / me=tesa / subme=11 / psy=1 / psy_rd=1.00:0.00 / mixed_ref=1 / me_range=24 / chroma_me=1 / trellis=2 / 8x8dct=1 / cqm=0 / deadzone=21,11 / fast_pskip=0 / chroma_qp_offset=-2 / threads=24 / lookahead_threads=6 / sliced_threads=0 / nr=0 / decimate=1 / interlaced=0 / bluray_compat=0 / constrained_intra=0 / bframes=16 / b_pyramid=2 / b_adapt=2 / b_bias=0 / direct=3 / weightb=1 / open_gop=0 / weightp=2 / keyint=240 / keyint_min=24 / scenecut=40 / intra_refresh=0 / rc_lookahead=60 / rc=crf / mbtree=1 / crf=19.0 / qcomp=0.60 / qpmin=0 / qpmax=69 / qpstep=4 / vbv_maxrate=62500 / vbv_bufsize=78125 / crf_max=0.0 / nal_hrd=none / filler=0 / ip_ratio=1.40 / aq=1:1.00
    Default                     : Yes
    Forced                      : Yes
    Color range                 : Limited
    Color primaries             : BT.709
    Transfer characteristics    : BT.709
    Matrix coefficients         : BT.709

    Audio #1
    ID                          : 2
    Format                      : AC-3
    Format/Info                 : Audio Coding 3
    Commercial name             : Dolby Digital
    Codec ID                    : A_AC3
    Duration                    : 2 h 7 min
    Bit rate mode               : Constant
    Bit rate                    : 640 kb/s
    Channel(s)                  : 6 channels
    Channel layout              : L R C LFE Ls Rs
    Sampling rate               : 48.0 kHz
    Frame rate                  : 31.250 FPS (1536 SPF)
    Compression mode            : Lossy
    Stream size                 : 586 MiB (11%)
    Title                       : Español Latino [CinemaniaHDD]
    Language                    : Spanish
    Service kind                : Complete Main
    Default                     : Yes
    Forced                      : Yes

    Audio #2
    ID                          : 3
    Format                      : DTS
    Format/Info                 : Digital Theater Systems
    Codec ID                    : A_DTS
    Duration                    : 2 h 7 min
    Bit rate mode               : Constant
    Bit rate                    : 1 509 kb/s
    Channel(s)                  : 6 channels
    Channel layout              : C L R Ls Rs LFE
    Sampling rate               : 48.0 kHz
    Frame rate                  : 93.750 FPS (512 SPF)
    Bit depth                   : 16 bits
    Compression mode            : Lossy
    Stream size                 : 1.35 GiB (26%)
    Title                       : Ingles [CinemaniaHDD]
    Language                    : English
    Default                     : No
    Forced                      : No

    Text #1
    ID                          : 4
    Format                      : UTF-8
    Codec ID                    : S_TEXT/UTF8
    Codec ID/Info               : UTF-8 Plain Text
    Duration                    : 1 h 59 min
    Bit rate                    : 1 b/s
    Count of elements           : 25
    Stream size                 : 912 Bytes (0%)
    Title                       : Forzados-SRT [CinemaniaHDD]
    Language                    : Spanish
    Default                     : Yes
    Forced                      : Yes

    Text #2
    ID                          : 5
    Format                      : UTF-8
    Codec ID                    : S_TEXT/UTF8
    Codec ID/Info               : UTF-8 Plain Text
    Duration                    : 2 h 5 min
    Bit rate                    : 25 b/s
    Count of elements           : 870
    Stream size                 : 23.8 KiB (0%)
    Title                       : Español-SRT [CinemaniaHDD]
    Language                    : Spanish
    Default                     : No
    Forced                      : No

    Text #3
    ID                          : 6
    ID in the original source m : 4608 (0x1200)
    Format                      : PGS
    Muxing mode                 : zlib
    Codec ID                    : S_HDMV/PGS
    Codec ID/Info               : Picture based subtitle format used on BDs/HD-DVDs
    Duration                    : 2 h 0 min
    Bit rate                    : 33.6 kb/s
    Count of elements           : 2400
    Stream size                 : 28.9 MiB (1%)
    Title                       : Ingles [CinemaniaHDD]
    Language                    : English
    Default                     : No
    Forced                      : No
    Original source medium      : Blu-ray

    Menu
    00:00:00.000                : Chapter 01
    00:10:56.739                : Chapter 02
    00:22:41.777                : Chapter 03
    00:33:24.377                : Chapter 04
    00:38:19.171                : Chapter 05
    00:43:06.166                : Chapter 06
    00:44:20.115                : Chapter 07
    00:52:42.617                : Chapter 08
    01:01:07.038                : Chapter 09
    01:11:22.903                : Chapter 10
    01:17:16.757                : Chapter 11
    01:25:17.278                : Chapter 12
    01:31:20.766                : Chapter 13
    01:38:27.067                : Chapter 14
    01:47:15.429                : Chapter 15
    01:51:41.903                : Chapter 16
    02:02:22.335                : Chapter 17

  • Peso: 5.19 GiB

Sinopsis

Descargar El Poder Del Perro (2021) PLACEBO Full HD 1080p Latino. Los acaudalados hermanos Phil y George Burbank son las dos caras de la misma moneda. Phil es elegante, genial y cruel, mientras George es impasible, quisquilloso y amable. Juntos son copropietarios de un enorme rancho en Montana. Es un lugar donde la rápida modernización del siglo XX se mantiene y en el que la figura de Bronco Henry, el mayor cowboy que Phil ha conocido jamás, es venerado. Cuando George se casa en secreto con Rose, una viuda del pueblo, Phil, sorprendido y furioso, lleva a cabo una guerra sádica e implacable para destruirla por completo usando a su afeminado hijo, Peter, como peón.

Ficha técnica

Video trailer de la película

Enlaces de descarga

Rip de Bluray

Descargar El Poder Del Perro (2021) PLACEBO Full HD 1080p Latino




Aportes de DPeliculasHDmega la pass es:dpeliculashdmega.org Aportes de CinemaniaHD la pass es:cinemaniahdd.com

Películas relacionadas

descargar El Poder Del Perro (2021) PLACEBO Full HD 1080p Latino Full 1080p 1080p gratis, El Poder Del Perro (2021) PLACEBO Full HD 1080p Latino Full 1080p mega 1 link, El Poder Del Perro (2021) PLACEBO Full HD 1080p Latino Full 1080p pelicula completa, descargar El Poder Del Perro (2021) PLACEBO Full HD 1080p Latino Full 1080p gratis en mega.

El Poder Del Perro (2021) PLACEBO Full HD 1080p Latino pelicula full hd, El Poder Del Perro (2021) PLACEBO Full HD 1080p Latino mega latino, El Poder Del Perro (2021) PLACEBO Full HD 1080p Latino 4k latino, El Poder Del Perro (2021) PLACEBO Full HD 1080p Latino pelicula completa, El Poder Del Perro (2021) PLACEBO Full HD 1080p Latino descargar gratis, descargar El Poder Del Perro (2021) PLACEBO Full HD 1080p Latino pelicula latino, El Poder Del Perro (2021) PLACEBO Full HD 1080p Latino 1 link mega, El Poder Del Perro (2021) PLACEBO Full HD 1080p Latino 1 link google drive, El Poder Del Perro (2021) PLACEBO Full HD 1080p Latino hd 1080p latino.
Comentarios 0