×

¿Problemas para descargar con Mozilla, EDGE? Deshabilita la opción "Abrir vinculos en una pestaña nueva" tal como lo muestra ésta imagen.

El poder de los centavos (2023) PLACEBO Full HD 1080p Latino

75 vistas

Información de El poder de los centavos (2023) PLACEBO Full HD 1080p Latino

Datos de la película

  • Calidad: Full 1080p
  • Audio: Español Latino AC3 2.0 WEB-DL - Ingles DTS 5.1 BLURAY
  • Subtitulos: Español Latino PGS - Ingles PGS
  • Resolución: 1920x1080p
  • Formato: MKV
  • Codec: H.264
  • Encoder: Melkor
  • Mediainfo: Clic para Mostrar Datos Ver
  • El Poder De Los Centavos (2023) PLACEBO 1080p Latino.mkv
    Format                      : Matroska
    Format version              : Version 4
    File size                   : 3.32 GiB
    Duration                    : 1 h 45 min
    Overall bit rate            : 4 518 kb/s
    Movie name                  : Dumb Money (2023) CinemaniaHDD.Net
    Encoded date                : UTC 2024-02-03 21:40:04
    Writing application         : mkvmerge v56.1.0 ('My Friend') 64-bit
    Writing library             : libebml v1.4.2 + libmatroska v1.6.4
    Attachments                 : CINEMANIAHD.png
    Site                        : CinemaniaHDD.Net
    Uploader                    : Melkor

    Video
    ID                          : 1
    Format                      : AVC
    Format/Info                 : Advanced Video Codec
    Format profile              : High@L4.1
    Format settings             : CABAC / 4 Ref Frames
    Format settings, CABAC      : Yes
    Format settings, Reference  : 4 frames
    Codec ID                    : V_MPEG4/ISO/AVC
    Duration                    : 1 h 45 min
    Bit rate                    : 2 695 kb/s
    Width                       : 1 920 pixels
    Height                      : 1 080 pixels
    Display aspect ratio        : 16:9
    Frame rate mode             : Constant
    Frame rate                  : 23.976 (24000/1001) FPS
    Color space                 : YUV
    Chroma subsampling          : 4:2:0
    Bit depth                   : 8 bits
    Scan type                   : Progressive
    Bits/(Pixel*Frame)          : 0.054
    Stream size                 : 1.98 GiB (60%)
    Title                       : Full HD1080p [CinemaniaHDD]
    Writing library             : x264 core 163 r3059 b684ebe0
    Encoding settings           : cabac=1 / ref=4 / deblock=1:0:0 / analyse=0x3:0x133 / me=tesa / subme=11 / psy=1 / psy_rd=1.00:0.00 / mixed_ref=1 / me_range=24 / chroma_me=1 / trellis=2 / 8x8dct=1 / cqm=0 / deadzone=21,11 / fast_pskip=0 / chroma_qp_offset=-2 / threads=24 / lookahead_threads=6 / sliced_threads=0 / nr=0 / decimate=1 / interlaced=0 / bluray_compat=0 / constrained_intra=0 / bframes=16 / b_pyramid=2 / b_adapt=2 / b_bias=0 / direct=3 / weightb=1 / open_gop=0 / weightp=2 / keyint=240 / keyint_min=24 / scenecut=40 / intra_refresh=0 / rc_lookahead=60 / rc=crf / mbtree=1 / crf=19.0 / qcomp=0.60 / qpmin=0 / qpmax=69 / qpstep=4 / vbv_maxrate=62500 / vbv_bufsize=78125 / crf_max=0.0 / nal_hrd=none / filler=0 / ip_ratio=1.40 / aq=1:1.00
    Default                     : Yes
    Forced                      : Yes
    Color range                 : Limited
    Color primaries             : BT.709
    Transfer characteristics    : BT.709
    Matrix coefficients         : BT.709

    Audio #1
    ID                          : 2
    Format                      : AC-3
    Format/Info                 : Audio Coding 3
    Commercial name             : Dolby Digital
    Codec ID                    : A_AC3
    Duration                    : 1 h 45 min
    Bit rate mode               : Constant
    Bit rate                    : 256 kb/s
    Channel(s)                  : 2 channels
    Channel layout              : L R
    Sampling rate               : 48.0 kHz
    Frame rate                  : 31.250 FPS (1536 SPF)
    Compression mode            : Lossy
    Stream size                 : 192 MiB (6%)
    Title                       : Español Latino [CinemaniaHDD]
    Language                    : Spanish
    Service kind                : Complete Main
    Default                     : Yes
    Forced                      : Yes

    Audio #2
    ID                          : 3
    Format                      : DTS
    Format/Info                 : Digital Theater Systems
    Codec ID                    : A_DTS
    Duration                    : 1 h 45 min
    Bit rate mode               : Constant
    Bit rate                    : 1 509 kb/s
    Channel(s)                  : 6 channels
    Channel layout              : C L R Ls Rs LFE
    Sampling rate               : 48.0 kHz
    Frame rate                  : 93.750 FPS (512 SPF)
    Bit depth                   : 24 bits
    Compression mode            : Lossy
    Stream size                 : 1.11 GiB (33%)
    Title                       : Ingles [CinemaniaHDD]
    Language                    : English
    Default                     : No
    Forced                      : No

    Text #1
    ID                          : 4
    Format                      : PGS
    Muxing mode                 : zlib
    Codec ID                    : S_HDMV/PGS
    Codec ID/Info               : Picture based subtitle format used on BDs/HD-DVDs
    Duration                    : 1 h 43 min
    Bit rate                    : 50.0 kb/s
    Count of elements           : 3664
    Stream size                 : 37.2 MiB (1%)
    Title                       : Español-PGS [CinemaniaHDD]
    Language                    : Spanish
    Default                     : No
    Forced                      : No

    Text #2
    ID                          : 5
    Format                      : PGS
    Muxing mode                 : zlib
    Codec ID                    : S_HDMV/PGS
    Codec ID/Info               : Picture based subtitle format used on BDs/HD-DVDs
    Duration                    : 1 h 34 min
    Bit rate                    : 58.0 kb/s
    Count of elements           : 3534
    Stream size                 : 39.2 MiB (1%)
    Title                       : Ingles [CinemaniaHDD]
    Language                    : English
    Default                     : No
    Forced                      : No

    Text #3
    ID                          : 6
    Format                      : UTF-8
    Codec ID                    : S_TEXT/UTF8
    Codec ID/Info               : UTF-8 Plain Text
    Duration                    : 1 h 35 min
    Bit rate                    : 21 b/s
    Count of elements           : 311
    Stream size                 : 14.7 KiB (0%)
    Title                       : Forzados-SRT [CinemaniaHDD]
    Language                    : Spanish
    Default                     : Yes
    Forced                      : Yes

    Text #4
    ID                          : 7
    Format                      : UTF-8
    Codec ID                    : S_TEXT/UTF8
    Codec ID/Info               : UTF-8 Plain Text
    Duration                    : 1 h 35 min
    Bit rate                    : 96 b/s
    Count of elements           : 1621
    Stream size                 : 66.9 KiB (0%)
    Title                       : Español-SRT [CinemaniaHDD]
    Language                    : Spanish
    Default                     : No
    Forced                      : No

    Menu
    00:00:00.000                : Chapter 01
    00:03:53.442                : Chapter 02
    00:08:23.712                : Chapter 03
    00:13:54.542                : Chapter 04
    00:19:02.141                : Chapter 05
    00:23:39.251                : Chapter 06
    00:28:28.165                : Chapter 07
    00:36:45.495                : Chapter 08
    00:44:59.614                : Chapter 09
    00:52:49.792                : Chapter 10
    01:00:15.737                : Chapter 11
    01:08:17.010                : Chapter 12
    01:12:48.531                : Chapter 13
    01:20:52.056                : Chapter 14
    01:27:06.054                : Chapter 15
    01:34:12.730                : Chapter 16
    01:38:18.935                : Chapter 17

  • Peso: 3.32 GiB

Sinopsis

Descargar El poder de los centavos (2023) PLACEBO Full HD 1080p Latino. Nos descubre el disparatado caso real de gente corriente que consiguió jugársela a Wall Street y se hizo rica convirtiendo GameStop (una popular tienda de videojuegos y electrónica) en la empresa más candente del mundo. En medio de todo este embrollo se encuentra Keith Gill (Paul Dano), un tipo cualquiera que invirtió los ahorros de su vida en acciones y empezó a publicar sobre ello en redes sociales. Gracias a sus consejos bursátiles, su popularidad estalló, al igual que lo hizo su vida y la de todos sus seguidores, que empezaron a enriquecerse de la noche a la mañana. No obstante, los multimillonarios no tardaron en contratacar, desencadenando una de las batallas financieras más feroces vividas en Wall Street.

Ficha técnica

Video trailer de la película

Enlaces de descarga

Rip de Bluray

Descargar El poder de los centavos (2023) PLACEBO Full HD 1080p Latino




Aportes de DPeliculasHDmega la pass es:dpeliculashdmega.org Aportes de CinemaniaHD la pass es:cinemaniahdd.com Aportes recientes:cinemaniahdd.net

Películas relacionadas

  • Fear (2023) AMZN WEB-DL 1080p Latino

    Fear (2023) AMZN WEB-DL 1080p Latino

    2023
    Fear (2023) AMZN WEB-DL 1080p Latino

    1h 38m 2023

    Una escapada muy necesaria y un fin de semana de celebración se convierte en una pesadilla debido a...

    Director: Deon Taylor

    Género: Drama

    Actores: Whylip Lee

  • Chucky (2023) Temporada 3 WEB-DL 1080p Latino

    Chucky (2023) Temporada 3 WEB-DL 1080p Latino

    2021
    Chucky (2023) Temporada 3 WEB-DL 1080p Latino

    0h 42m 2021

    El infame Chucky se abre paso a cuchilladas hacia la televisión en una nueva y mortífera serie escrita...

    Director: Nick Antosca

    Género: Crimen

    Actores: Zackary Arthur

  • Good Burger 2 (2023) PLACEBO Full HD 1080p Latino

    Good Burger 2 (2023) PLACEBO Full HD 1080p Latino

    2023
    Good Burger 2 (2023) PLACEBO Full HD 1080p Latino

    1h 31m 2023

    Descargar Good Burger 2 (2023) PLACEBO Full HD 1080p Latino. Después de que su último invento falla,...

    Director: Ross Novie

    Género: Comedia

    Actores: Zoe Saldana

descargar El poder de los centavos (2023) PLACEBO Full HD 1080p Latino Full 1080p 1080p gratis, El poder de los centavos (2023) PLACEBO Full HD 1080p Latino Full 1080p mega 1 link, El poder de los centavos (2023) PLACEBO Full HD 1080p Latino Full 1080p pelicula completa, descargar El poder de los centavos (2023) PLACEBO Full HD 1080p Latino Full 1080p gratis en mega.

El poder de los centavos (2023) PLACEBO Full HD 1080p Latino pelicula full hd, El poder de los centavos (2023) PLACEBO Full HD 1080p Latino mega latino, El poder de los centavos (2023) PLACEBO Full HD 1080p Latino 4k latino, El poder de los centavos (2023) PLACEBO Full HD 1080p Latino pelicula completa, El poder de los centavos (2023) PLACEBO Full HD 1080p Latino descargar gratis, descargar El poder de los centavos (2023) PLACEBO Full HD 1080p Latino pelicula latino, El poder de los centavos (2023) PLACEBO Full HD 1080p Latino 1 link mega, El poder de los centavos (2023) PLACEBO Full HD 1080p Latino 1 link google drive, El poder de los centavos (2023) PLACEBO Full HD 1080p Latino hd 1080p latino.
Comentarios 0