×

¿Problemas para descargar con Mozilla, EDGE? Deshabilita la opción "Abrir vinculos en una pestaña nueva" tal como lo muestra ésta imagen.

El Planeta del Tesoro (2002) REMUX 1080p Latino – CMHDD

382 vistas

Información de El Planeta del Tesoro (2002) REMUX 1080p Latino – CMHDD

Datos de la película

  • Calidad: Full 1080p
  • Audio: Español Latino AC3 5.1 BLURAY - Ingles DTS 5.1 BLURAY
  • Subtitulos: Español Latino SRT- FORZADOS SRT
  • Resolución: 1920x1080p
  • Formato: MKV
  • Codec: H.264
  • Encoder: Dracarys
  • Mediainfo: Clic para Mostrar Datos Ver
  • Format                      : Matroska
    Format version              : Version 4
    File size                   : 20.2 GiB
    Duration                    : 1 h 35 min
    Overall bit rate mode       : Variable
    Overall bit rate            : 30.3 Mb/s
    Movie name                  : El Planeta del Tesoro (2002) REMUX 1080p Latino - CMHDD
    Encoded date                : UTC 2020-09-01 21:06:05
    Writing application         : mkvmerge v46.0.0 ('No Deeper Escape') 64-bit
    Writing library             : libebml v1.3.10 + libmatroska v1.5.2

    Video
    ID                          : 1
    Format                      : AVC
    Format/Info                 : Advanced Video Codec
    Format profile              : High@L4.1
    Format settings             : CABAC / 4 Ref Frames
    Format settings, CABAC      : Yes
    Format settings, Reference  : 4 frames
    Codec ID                    : V_MPEG4/ISO/AVC
    Duration                    : 1 h 35 min
    Bit rate mode               : Variable
    Bit rate                    : 25.6 Mb/s
    Maximum bit rate            : 34.0 Mb/s
    Width                       : 1 920 pixels
    Height                      : 1 080 pixels
    Display aspect ratio        : 16:9
    Frame rate mode             : Constant
    Frame rate                  : 23.976 (24000/1001) FPS
    Color space                 : YUV
    Chroma subsampling          : 4:2:0
    Bit depth                   : 8 bits
    Scan type                   : Progressive
    Bits/(Pixel*Frame)          : 0.516
    Stream size                 : 17.1 GiB (85%)
    Default                     : Yes
    Forced                      : No

    Audio #1
    ID                          : 2
    Format                      : AC-3
    Format/Info                 : Audio Coding 3
    Commercial name             : Dolby Digital
    Codec ID                    : A_AC3
    Duration                    : 1 h 35 min
    Bit rate mode               : Constant
    Bit rate                    : 640 kb/s
    Channel(s)                  : 6 channels
    Channel layout              : L R C LFE Ls Rs
    Sampling rate               : 48.0 kHz
    Frame rate                  : 31.250 FPS (1536 SPF)
    Compression mode            : Lossy
    Stream size                 : 437 MiB (2%)
    Language                    : Spanish
    Service kind                : Complete Main
    Default                     : Yes
    Forced                      : No

    Audio #2
    ID                          : 3
    Format                      : DTS XLL
    Format/Info                 : Digital Theater Systems
    Commercial name             : DTS-HD Master Audio
    Codec ID                    : A_DTS
    Duration                    : 1 h 35 min
    Bit rate mode               : Variable
    Bit rate                    : 4 000 kb/s
    Channel(s)                  : 6 channels
    Channel layout              : C L R Ls Rs LFE
    Sampling rate               : 48.0 kHz
    Frame rate                  : 93.750 FPS (512 SPF)
    Bit depth                   : 24 bits
    Compression mode            : Lossless
    Stream size                 : 2.67 GiB (13%)
    Language                    : English
    Default                     : No
    Forced                      : No

    Text #1
    ID                          : 4
    Format                      : PGS
    Muxing mode                 : zlib
    Codec ID                    : S_HDMV/PGS
    Codec ID/Info               : Picture based subtitle format used on BDs/HD-DVDs
    Duration                    : 1 h 26 min
    Bit rate                    : 35.1 kb/s
    Count of elements           : 2244
    Stream size                 : 21.8 MiB (0%)
    Language                    : Spanish
    Default                     : No
    Forced                      : No

    Text #2
    ID                          : 5
    Format                      : UTF-8
    Codec ID                    : S_TEXT/UTF8
    Codec ID/Info               : UTF-8 Plain Text
    Duration                    : 4 min 33 s
    Bit rate                    : 1 b/s
    Count of elements           : 3
    Stream size                 : 50.0 Bytes (0%)
    Title                       : Forzados
    Language                    : Spanish
    Default                     : Yes
    Forced                      : No

    Text #3
    ID                          : 6
    Format                      : UTF-8
    Codec ID                    : S_TEXT/UTF8
    Codec ID/Info               : UTF-8 Plain Text
    Duration                    : 1 h 26 min
    Bit rate                    : 57 b/s
    Count of elements           : 1122
    Stream size                 : 36.6 KiB (0%)
    Language                    : Spanish
    Default                     : No
    Forced                      : No

    Menu
    00:00:00.000                : en:Opening Credits/A Young Boy's Dream
    00:04:51.166                : en:The Warning
    00:12:09.103                : en:Jim's Quest
    00:16:40.333                : en:The R.L.S. Legacy
    00:20:34.150                : en:John Silver
    00:25:03.669                : en:Setting Sail
    00:30:41.923                : en:A Mutiny in the Making
    00:33:05.942                : en:'I'm Still Here (Jim's Theme)'
    00:36:43.535                : en:A Star Gone Supernova
    00:42:21.914                : en:Getting In Too Deep
    00:46:25.074                : en:Jim Hears the Truth
    00:50:51.131                : en:Protecting the Map
    00:55:04.468                : en:B.E.N.
    00:59:54.341                : en:Bargaining for the Map
    01:03:46.656                : en:Sneaking Back on Ship
    01:08:19.429                : en:The Discovery
    01:13:05.506                : en:The Treasure
    01:19:24.218                : en:The Escape
    01:23:57.407                : en:Silver and Jim Say Goodbye
    01:27:20.110                : en:Going Home/End Credits

  • Peso: 20.2 GiB

Sinopsis

Jim, conocido por ser un gran surfista solar, se enfrenta a una cacería intergaláctica de tesoros. En sus manos cae un legendario mapa que le llevará a buscar la fortuna más grande del Universo. A bordo de un espectacular «galeón solar», Jim se convierte en el ayudante del cocinero del barco, John Silver- mitad hombre, mitad máquina- que le enseña la forma de ser un buen explorador del espacio. Luchando por sus vidas, Jim y Morfi conocen a un simpático robot, conocido por el divertido nombre de B.E.N. (Bio Electro Navegador). Juntos, bajo el mando de la inteligente Capitán Amelia, descubrirán un impresionante tesoro mucho más grande de lo que nunca nadie imaginó…. Fantasiosa adaptación por parte de la Disney del clásico de Robert Louis Stevenson «La isla del tesoro», una aventura con barcos voladores ambientada en el espacio exterior.

Ficha técnica

Video trailer de la película

Enlaces de descarga

Rip de Bluray

Descargar El Planeta del Tesoro (2002) REMUX 1080p Latino – CMHDD




Aportes de DPeliculasHDmega la pass es:dpeliculashdmega.org Aportes de CinemaniaHD la pass es:cinemaniahdd.com

Películas relacionadas

  • Mi amigo el dragón (2016) Full HD 1080p Latino

    Mi amigo el dragón (2016) Full HD 1080p Latino

    2016
    Mi amigo el dragón (2016) Full HD 1080p Latino

    1h 43m 2016

    Descargar Mi amigo el dragón (2016) Full HD 1080p Latino. Durante años el Sr. Meacham, un viejo tallador...

    Director: Joe Nolan

    Género: Aventura

    Actores: William J. Rawbone

  • Mi amigo el dragón (2016) REMUX 1080p Latino

    Mi amigo el dragón (2016) REMUX 1080p Latino

    2016
    Mi amigo el dragón (2016) REMUX 1080p Latino

    1h 43m 2016

    Descargar Mi amigo el dragón (2016) REMUX 1080p Latino. Durante años el Sr. Meacham, un viejo tallador...

    Director: Joe Nolan

    Género: Aventura

    Actores: William J. Rawbone

  • Lucy (2014) REMUX 4K HDR Latino – CMHDD

    Lucy (2014) REMUX 4K HDR Latino – CMHDD

    2014
    Lucy (2014) REMUX 4K HDR Latino – CMHDD

    1h 30m 2014

    Lucy, una joven obligada a ejercer de mula de una nueva y potente droga, adquiere de repente enormes...

    Director: Luc Besson

    Género: Acción

    Actores: Wolfgang Pissors

descargar El Planeta del Tesoro (2002) REMUX 1080p Latino – CMHDD Full 1080p 1080p gratis, El Planeta del Tesoro (2002) REMUX 1080p Latino – CMHDD Full 1080p mega 1 link, El Planeta del Tesoro (2002) REMUX 1080p Latino – CMHDD Full 1080p pelicula completa, descargar El Planeta del Tesoro (2002) REMUX 1080p Latino – CMHDD Full 1080p gratis en mega.

El Planeta del Tesoro (2002) REMUX 1080p Latino – CMHDD pelicula full hd, El Planeta del Tesoro (2002) REMUX 1080p Latino – CMHDD mega latino, El Planeta del Tesoro (2002) REMUX 1080p Latino – CMHDD 4k latino, El Planeta del Tesoro (2002) REMUX 1080p Latino – CMHDD pelicula completa, El Planeta del Tesoro (2002) REMUX 1080p Latino – CMHDD descargar gratis, descargar El Planeta del Tesoro (2002) REMUX 1080p Latino – CMHDD pelicula latino, El Planeta del Tesoro (2002) REMUX 1080p Latino – CMHDD 1 link mega, El Planeta del Tesoro (2002) REMUX 1080p Latino – CMHDD 1 link google drive, El Planeta del Tesoro (2002) REMUX 1080p Latino – CMHDD hd 1080p latino.
Comentarios 0