×

¿Problemas para descargar con Mozilla, EDGE? Deshabilita la opción "Abrir vinculos en una pestaña nueva" tal como lo muestra ésta imagen.

El Planeta del Tesoro (2002) HD 1080p Latino – CMHDD

440 vistas

Información de El Planeta del Tesoro (2002) HD 1080p Latino – CMHDD

Datos de la película

  • Calidad: 1080p
  • Audio: Español Latino AC3 5.1 BLURAY - Ingles AC3 5.1 BLURAY
  • Subtitulos: Español Latino SRT- FORZADOS SRT
  • Resolución: 1816x1080p
  • Formato: MKV
  • Codec: H.264
  • Encoder: Dracarys
  • Mediainfo: Clic para Mostrar Datos Ver
  • Format                      : Matroska
    Format version              : Version 4
    File size                   : 3.17 GiB
    Duration                    : 1 h 35 min
    Overall bit rate            : 4 759 kb/s
    Movie name                  : El Planeta del Tesoro (2002) HD 1080p Latino - CMHDD
    Encoded date                : UTC 2020-09-01 21:10:45
    Writing application         : mkvmerge v46.0.0 ('No Deeper Escape') 64-bit
    Writing library             : libebml v1.3.10 + libmatroska v1.5.2

    Video
    ID                          : 1
    Format                      : AVC
    Format/Info                 : Advanced Video Codec
    Format profile              : High@L4.1
    Format settings             : CABAC / 4 Ref Frames
    Format settings, CABAC      : Yes
    Format settings, Reference  : 4 frames
    Codec ID                    : V_MPEG4/ISO/AVC
    Duration                    : 1 h 35 min
    Bit rate                    : 3 500 kb/s
    Width                       : 1 816 pixels
    Height                      : 1 080 pixels
    Display aspect ratio        : 5:3
    Frame rate mode             : Constant
    Frame rate                  : 23.976 (24000/1001) FPS
    Color space                 : YUV
    Chroma subsampling          : 4:2:0
    Bit depth                   : 8 bits
    Scan type                   : Progressive
    Bits/(Pixel*Frame)          : 0.074
    Stream size                 : 2.32 GiB (73%)
    Writing library             : x264 core 157 r2935 545de2f
    Encoding settings           : cabac=1 / ref=4 / deblock=1:0:0 / analyse=0x3:0x113 / me=hex / subme=8 / psy=1 / psy_rd=1.00:0.00 / mixed_ref=1 / me_range=16 / chroma_me=1 / trellis=2 / 8x8dct=1 / cqm=0 / deadzone=21,11 / fast_pskip=1 / chroma_qp_offset=-2 / threads=24 / lookahead_threads=4 / sliced_threads=0 / nr=0 / decimate=1 / interlaced=0 / bluray_compat=0 / constrained_intra=0 / bframes=3 / b_pyramid=2 / b_adapt=1 / b_bias=0 / direct=3 / weightb=1 / open_gop=0 / weightp=2 / keyint=240 / keyint_min=24 / scenecut=40 / intra_refresh=0 / rc_lookahead=50 / rc=abr / mbtree=1 / bitrate=3500 / ratetol=1.0 / qcomp=0.60 / qpmin=0 / qpmax=69 / qpstep=4 / vbv_maxrate=62500 / vbv_bufsize=78125 / nal_hrd=none / filler=0 / ip_ratio=1.40 / aq=1:1.00
    Default                     : Yes
    Forced                      : No
    Color range                 : Limited
    Color primaries             : BT.709
    Transfer characteristics    : BT.709
    Matrix coefficients         : BT.709

    Audio #1
    ID                          : 2
    Format                      : AC-3
    Format/Info                 : Audio Coding 3
    Commercial name             : Dolby Digital
    Codec ID                    : A_AC3
    Duration                    : 1 h 35 min
    Bit rate mode               : Constant
    Bit rate                    : 640 kb/s
    Channel(s)                  : 6 channels
    Channel layout              : L R C LFE Ls Rs
    Sampling rate               : 48.0 kHz
    Frame rate                  : 31.250 FPS (1536 SPF)
    Compression mode            : Lossy
    Delay relative to video     : -5 ms
    Stream size                 : 437 MiB (13%)
    Language                    : Spanish
    Service kind                : Complete Main
    Default                     : Yes
    Forced                      : No

    Audio #2
    ID                          : 3
    Format                      : AC-3
    Format/Info                 : Audio Coding 3
    Commercial name             : Dolby Digital
    Codec ID                    : A_AC3
    Duration                    : 1 h 35 min
    Bit rate mode               : Constant
    Bit rate                    : 640 kb/s
    Channel(s)                  : 6 channels
    Channel layout              : L R C LFE Ls Rs
    Sampling rate               : 48.0 kHz
    Frame rate                  : 31.250 FPS (1536 SPF)
    Compression mode            : Lossy
    Delay relative to video     : -5 ms
    Stream size                 : 437 MiB (13%)
    Language                    : English
    Service kind                : Complete Main
    Default                     : No
    Forced                      : No

    Text #1
    ID                          : 4
    Format                      : UTF-8
    Codec ID                    : S_TEXT/UTF8
    Codec ID/Info               : UTF-8 Plain Text
    Duration                    : 4 min 33 s
    Bit rate                    : 1 b/s
    Count of elements           : 3
    Stream size                 : 50.0 Bytes (0%)
    Title                       : Forzados
    Language                    : Spanish
    Default                     : Yes
    Forced                      : No

    Text #2
    ID                          : 5
    Format                      : UTF-8
    Codec ID                    : S_TEXT/UTF8
    Codec ID/Info               : UTF-8 Plain Text
    Duration                    : 1 h 26 min
    Bit rate                    : 57 b/s
    Count of elements           : 1122
    Stream size                 : 36.6 KiB (0%)
    Language                    : Spanish
    Default                     : No
    Forced                      : No

    Menu
    00:00:00.000                : :Opening Credits/A Young Boy's Dream
    00:04:51.166                : :The Warning
    00:12:09.103                : :Jim's Quest
    00:16:40.333                : :The R.L.S. Legacy
    00:20:34.150                : :John Silver
    00:25:03.669                : :Setting Sail
    00:30:41.923                : :A Mutiny in the Making
    00:33:05.942                : :'I'm Still Here (Jim's Theme)'
    00:36:43.535                : :A Star Gone Supernova
    00:42:21.914                : :Getting In Too Deep
    00:46:25.074                : :Jim Hears the Truth
    00:50:51.131                : :Protecting the Map
    00:55:04.468                : :B.E.N.
    00:59:54.341                : :Bargaining for the Map
    01:03:46.656                : :Sneaking Back on Ship
    01:08:19.429                : :The Discovery
    01:13:05.506                : :The Treasure
    01:19:24.218                : :The Escape
    01:23:57.407                : :Silver and Jim Say Goodbye
    01:27:20.110                : :Going Home/End Credits

  • Peso: 3.17 GiB

Sinopsis

Jim, conocido por ser un gran surfista solar, se enfrenta a una cacería intergaláctica de tesoros. En sus manos cae un legendario mapa que le llevará a buscar la fortuna más grande del Universo. A bordo de un espectacular «galeón solar», Jim se convierte en el ayudante del cocinero del barco, John Silver- mitad hombre, mitad máquina- que le enseña la forma de ser un buen explorador del espacio. Luchando por sus vidas, Jim y Morfi conocen a un simpático robot, conocido por el divertido nombre de B.E.N. (Bio Electro Navegador). Juntos, bajo el mando de la inteligente Capitán Amelia, descubrirán un impresionante tesoro mucho más grande de lo que nunca nadie imaginó…. Fantasiosa adaptación por parte de la Disney del clásico de Robert Louis Stevenson «La isla del tesoro», una aventura con barcos voladores ambientada en el espacio exterior.

Ficha técnica

Video trailer de la película

Enlaces de descarga

Rip de Bluray

Descargar El Planeta del Tesoro (2002) HD 1080p Latino – CMHDD




Aportes de DPeliculasHDmega la pass es:dpeliculashdmega.org Aportes de CinemaniaHD la pass es:cinemaniahdd.com

Películas relacionadas

  • M3GAN (2023) AMZN WEB-DL 4K UHD HDR Latino

    M3GAN (2023) AMZN WEB-DL 4K UHD HDR Latino

    2022
    M3GAN (2023) AMZN WEB-DL 4K UHD HDR Latino

    1h 42m 2022

    Descargar M3GAN (2023) AMZN WEB-DL 4K UHD HDR Latino. Cuando Gemma se convierte en la cuidadora de su...

    Director: Stephen W. Moore

    Género: 4K HDR

    Actores: Violet McGraw

  • M3GAN (2022) MA WEB-DL 1080p Latino

    M3GAN (2022) MA WEB-DL 1080p Latino

    2022
    M3GAN (2022) MA WEB-DL 1080p Latino

    1h 42m 2022

    Descargar M3GAN (2022) MA WEB-DL 1080p Latino. Cuando Gemma se convierte en la cuidadora de su sobrina...

    Director: Stephen W. Moore

    Género: Ciencia ficción

    Actores: Violet McGraw

  • Mar de sangre (2022) WEB-DL 1080p Latino

    Mar de sangre (2022) WEB-DL 1080p Latino

    2022
    Mar de sangre (2022) WEB-DL 1080p Latino

    1h 27m 2022

    Descargar Mar de sangre (2022) WEB-DL 1080p Latino. Un grupo de amigos que disfrutan de un fin de semana...

    Director: James Nunn

    Género: Acción

    Actores: Thomas Michael Flynn

  • Noche sin paz (2022) HD 1080p Latino

    Noche sin paz (2022) HD 1080p Latino

    2022
    Noche sin paz (2022) HD 1080p Latino

    1h 41m 2022

    Descargar Noche sin paz (2022) HD 1080p Latino. Cuando un equipo de mercenarios irrumpe en Nochebuena...

    Director: Tyshana Hobson

    Género: Acción

    Actores: Yoon Cha-Lee

descargar El Planeta del Tesoro (2002) HD 1080p Latino – CMHDD 1080p 1080p gratis, El Planeta del Tesoro (2002) HD 1080p Latino – CMHDD 1080p mega 1 link, El Planeta del Tesoro (2002) HD 1080p Latino – CMHDD 1080p pelicula completa, descargar El Planeta del Tesoro (2002) HD 1080p Latino – CMHDD 1080p gratis en mega.

El Planeta del Tesoro (2002) HD 1080p Latino – CMHDD pelicula full hd, El Planeta del Tesoro (2002) HD 1080p Latino – CMHDD mega latino, El Planeta del Tesoro (2002) HD 1080p Latino – CMHDD 4k latino, El Planeta del Tesoro (2002) HD 1080p Latino – CMHDD pelicula completa, El Planeta del Tesoro (2002) HD 1080p Latino – CMHDD descargar gratis, descargar El Planeta del Tesoro (2002) HD 1080p Latino – CMHDD pelicula latino, El Planeta del Tesoro (2002) HD 1080p Latino – CMHDD 1 link mega, El Planeta del Tesoro (2002) HD 1080p Latino – CMHDD 1 link google drive, El Planeta del Tesoro (2002) HD 1080p Latino – CMHDD hd 1080p latino.
Comentarios 0