×

¿Problemas para descargar con Mozilla, EDGE? Deshabilita la opción "Abrir vinculos en una pestaña nueva" tal como lo muestra ésta imagen.

El Peso del Talento (2022) Web-DL 1080p Latino

739 vistas

Información de El Peso del Talento (2022) Web-DL 1080p Latino

Datos de la película

  • Calidad: WEBDL
  • Audio: Español Latino AC3 5.1 WEB-DL - Ingles AC3 5.1 WEB-DL
  • Subtitulos: Español Latino SRT- FORZADOS SRT
  • Resolución: 1920x798p
  • Formato: MKV
  • Codec: H.264
  • Encoder: Melkor
  • Mediainfo: Clic para Mostrar Datos Ver
  • El Peso Del Talento (2022) AMZN WebDL 1080p Latino.mkv
    Format                      : Matroska
    Format version              : Version 4
    File size                   : 5.81 GiB
    Duration                    : 1 h 46 min
    Overall bit rate            : 7 787 kb/s
    Movie name                  : The Unbearable Weight Of Massive Talent (2022) CinemaniaHDD.Net
    Encoded date                : UTC 2022-06-07 05:25:25
    Writing application         : mkvmerge v56.1.0 ('My Friend') 64-bit
    Writing library             : libebml v1.4.2 + libmatroska v1.6.4
    Attachments                 : CINEMANIAHD.png

    Video
    ID                          : 1
    Format                      : AVC
    Format/Info                 : Advanced Video Codec
    Format profile              : High@L4
    Format settings             : CABAC / 5 Ref Frames
    Format settings, CABAC      : Yes
    Format settings, Reference  : 5 frames
    Codec ID                    : V_MPEG4/ISO/AVC
    Duration                    : 1 h 46 min
    Bit rate                    : 6 632 kb/s
    Width                       : 1 920 pixels
    Height                      : 798 pixels
    Display aspect ratio        : 2.40:1
    Frame rate mode             : Constant
    Frame rate                  : 23.976 (24000/1001) FPS
    Color space                 : YUV
    Chroma subsampling          : 4:2:0
    Bit depth                   : 8 bits
    Scan type                   : Progressive
    Bits/(Pixel*Frame)          : 0.181
    Stream size                 : 4.95 GiB (85%)
    Title                       : Web HD1080p [CinemaniaHDD]
    Default                     : Yes
    Forced                      : Yes
    Color range                 : Limited
    Color primaries             : BT.709
    Transfer characteristics    : BT.709
    Matrix coefficients         : BT.709

    Audio #1
    ID                          : 2
    Format                      : AC-3
    Format/Info                 : Audio Coding 3
    Commercial name             : Dolby Digital
    Codec ID                    : A_AC3
    Duration                    : 1 h 46 min
    Bit rate mode               : Constant
    Bit rate                    : 384 kb/s
    Channel(s)                  : 6 channels
    Channel layout              : L R C LFE Ls Rs
    Sampling rate               : 48.0 kHz
    Frame rate                  : 31.250 FPS (1536 SPF)
    Compression mode            : Lossy
    Stream size                 : 293 MiB (5%)
    Title                       : Español Latino [CinemaniaHDD]
    Language                    : Spanish
    Service kind                : Complete Main
    Default                     : Yes
    Forced                      : Yes

    Audio #2
    ID                          : 3
    Format                      : E-AC-3 JOC
    Format/Info                 : Enhanced AC-3 with Joint Object Coding
    Commercial name             : Dolby Digital Plus with Dolby Atmos
    Codec ID                    : A_EAC3
    Duration                    : 1 h 46 min
    Bit rate mode               : Constant
    Bit rate                    : 768 kb/s
    Channel(s)                  : 6 channels
    Channel layout              : L R C LFE Ls Rs
    Sampling rate               : 48.0 kHz
    Frame rate                  : 31.250 FPS (1536 SPF)
    Compression mode            : Lossy
    Stream size                 : 587 MiB (10%)
    Title                       : Ingles [CinemaniaHDD]
    Language                    : English
    Service kind                : Complete Main
    Default                     : No
    Forced                      : No
    Complexity index            : 16
    Number of dynamic objects   : 15
    Bed channel count           : 1 channel
    Bed channel configuration   : LFE

    Text #1
    ID                          : 4
    Format                      : UTF-8
    Codec ID                    : S_TEXT/UTF8
    Codec ID/Info               : UTF-8 Plain Text
    Duration                    : 39 min 43 s
    Bit rate                    : 1 b/s
    Count of elements           : 13
    Stream size                 : 342 Bytes (0%)
    Title                       : Forzados-SRT [CinemaniaHDD]
    Language                    : Spanish
    Default                     : Yes
    Forced                      : Yes

    Text #2
    ID                          : 5
    Format                      : UTF-8
    Codec ID                    : S_TEXT/UTF8
    Codec ID/Info               : UTF-8 Plain Text
    Duration                    : 1 h 37 min
    Bit rate                    : 72 b/s
    Count of elements           : 1542
    Stream size                 : 51.4 KiB (0%)
    Title                       : Español-SRT [CinemaniaHDD]
    Language                    : Spanish
    Default                     : No
    Forced                      : No

    Text #3
    ID                          : 6
    Format                      : UTF-8
    Codec ID                    : S_TEXT/UTF8
    Codec ID/Info               : UTF-8 Plain Text
    Duration                    : 1 h 37 min
    Bit rate                    : 82 b/s
    Count of elements           : 2073
    Stream size                 : 58.8 KiB (0%)
    Title                       : Ingles-SRT [CinemaniaHDD]
    Language                    : English
    Default                     : No
    Forced                      : No

    Menu
    00:00:00.000                : Chapter 01
    00:03:50.271                : Chapter 02
    00:16:33.535                : Chapter 03
    00:30:58.900                : Chapter 04
    00:44:35.508                : Chapter 05
    00:58:55.618                : Chapter 06
    01:10:25.016                : Chapter 07
    01:23:47.902                : Chapter 08
    01:37:58.128                : Chapter 09

  • Peso: 5.81 GiB

Sinopsis

Descargar El Peso del Talento (2022) Web-DL 1080p Latino. Nicolas Cage se interpreta a sí mismo en esta loca comedia de acción. La versión ficticia de Cage es un actor sin blanca que se ve obligado a aceptar una oferta de un millón de dólares para asistir al cumpleaños de un superfan excéntrico multimillonario (Pedro Pascal). Pero la situación da un giro inesperado cuando Cage es reclutado por una agente de la CIA (Tiffany Haddish) y obligado a estar a la altura de su propia leyenda para salvarse a sí mismo y a sus seres queridos. Con una carrera construida para este preciso momento, el actor ganador de premios debe asumir el papel de su vida: Nick Cage.

Ficha técnica

  • Titulo original: The Unbearable Weight of Massive Talent
  • Fecha de lanzamiento: 20-04-2022 (United States of America)
  • Director: Tom Gormican
  • Género: Acción, Comedia, Crimen

Video trailer de la película

Enlaces de descarga

Rip de Bluray

Descargar El Peso del Talento (2022) Web-DL 1080p Latino




Aportes de DPeliculasHDmega la pass es:dpeliculashdmega.org Aportes de CinemaniaHD la pass es:cinemaniahdd.com
Guardado en : Acción , Comedia , Crimen

Películas relacionadas

  • Togo (2022) NF WEB-DL 1080p Latino

    Togo (2022) NF WEB-DL 1080p Latino

    2022
    Togo (2022) NF WEB-DL 1080p Latino

    1h 35m 2022

    Descargar Togo (2022) NF WEB-DL 1080p Latino. Los narcos de poca monta están copando las calles de Montevideo...

    Director: Adrián Caetano

    Género: Crimen

    Actores: Tito Prieto

  • DC Liga De Supermascotas (2022) HD 1080p Latino

    DC Liga De Supermascotas (2022) HD 1080p Latino

    2022
    DC Liga De Supermascotas (2022) HD 1080p Latino

    1h 45m 2022

    Descargar DC Liga De Supermascotas (2022) HD 1080p Latino. Krypto el Superperro y Superman son amigos...

    Director: Sam Levine

    Género: Acción

    Actores: Yvette Nicole Brown

descargar El Peso del Talento (2022) Web-DL 1080p Latino WEBDL 1080p gratis, El Peso del Talento (2022) Web-DL 1080p Latino WEBDL mega 1 link, El Peso del Talento (2022) Web-DL 1080p Latino WEBDL pelicula completa, descargar El Peso del Talento (2022) Web-DL 1080p Latino WEBDL gratis en mega.

El Peso del Talento (2022) Web-DL 1080p Latino pelicula full hd, El Peso del Talento (2022) Web-DL 1080p Latino mega latino, El Peso del Talento (2022) Web-DL 1080p Latino 4k latino, El Peso del Talento (2022) Web-DL 1080p Latino pelicula completa, El Peso del Talento (2022) Web-DL 1080p Latino descargar gratis, descargar El Peso del Talento (2022) Web-DL 1080p Latino pelicula latino, El Peso del Talento (2022) Web-DL 1080p Latino 1 link mega, El Peso del Talento (2022) Web-DL 1080p Latino 1 link google drive, El Peso del Talento (2022) Web-DL 1080p Latino hd 1080p latino.
Comentarios 0