El Pequeño Detective (2020) REMUX 1080p Latino

9 vistas
1 estrella2 estrellas3 estrellas4 estrellas5 estrellas (1 votos, promedio: 5,00 de 5)
Cargando...

Información de El Pequeño Detective (2020) REMUX 1080p Latino

Datos de la película

  • Calidad: Full 1080p
  • Audio: Español Latino AC3 5.1 WEB-DL - Ingles DTS 5.1 BLURAY
  • Subtitulos: Español Latino SRT- FORZADOS SRT
  • Resolución: 1920x1080p
  • Formato: MKV
  • Codec: H.264
  • Encoder: Melkor
  • Mediainfo: Clic para Mostrar Datos Ver
  • El Pequeño Detective (2020) REMUX 1080p Latino.mkv
    Format                      : Matroska
    Format version              : Version 4
    File size                   : 14.9 GiB
    Duration                    : 1 h 39 min
    Overall bit rate mode       : Variable
    Overall bit rate            : 21.3 Mb/s
    Movie name                  : The Kid Detective (2020) CinemaniaHDD.Net
    Encoded date                : UTC 2021-09-12 05:31:26
    Writing application         : mkvmerge v56.1.0 ('My Friend') 64-bit
    Writing library             : libebml v1.4.2 + libmatroska v1.6.4
    Attachments                 : CINEMANIAHD.png

    Video
    ID                          : 1
    Format                      : AVC
    Format/Info                 : Advanced Video Codec
    Format profile              : High@L4.1
    Format settings             : CABAC / 2 Ref Frames
    Format settings, CABAC      : Yes
    Format settings, Reference  : 2 frames
    Codec ID                    : V_MPEG4/ISO/AVC
    Duration                    : 1 h 39 min
    Bit rate mode               : Variable
    Bit rate                    : 17.8 Mb/s
    Maximum bit rate            : 38.2 Mb/s
    Width                       : 1 920 pixels
    Height                      : 1 080 pixels
    Display aspect ratio        : 16:9
    Frame rate mode             : Constant
    Frame rate                  : 23.976 (23976/1000) FPS
    Original frame rate         : 23.976 (24000/1001) FPS
    Color space                 : YUV
    Chroma subsampling          : 4:2:0
    Bit depth                   : 8 bits
    Scan type                   : Progressive
    Bits/(Pixel*Frame)          : 0.357
    Stream size                 : 12.4 GiB (83%)
    Title                       : REMUX HD1080p [CinemaniaHDD]
    Language                    : English
    Default                     : Yes
    Forced                      : Yes

    Audio #1
    ID                          : 2
    Format                      : AC-3
    Format/Info                 : Audio Coding 3
    Commercial name             : Dolby Digital
    Codec ID                    : A_AC3
    Duration                    : 1 h 39 min
    Bit rate mode               : Constant
    Bit rate                    : 448 kb/s
    Channel(s)                  : 6 channels
    Channel layout              : L R C LFE Ls Rs
    Sampling rate               : 48.0 kHz
    Frame rate                  : 31.250 FPS (1536 SPF)
    Compression mode            : Lossy
    Stream size                 : 320 MiB (2%)
    Title                       : Español Latino [CinemaniaHDD]
    Language                    : Spanish
    Service kind                : Complete Main
    Default                     : Yes
    Forced                      : Yes

    Audio #2
    ID                          : 3
    ID in the original source m : 4352 (0x1100)
    Format                      : DTS XLL
    Format/Info                 : Digital Theater Systems
    Commercial name             : DTS-HD Master Audio
    Codec ID                    : A_DTS
    Duration                    : 1 h 39 min
    Bit rate mode               : Variable
    Bit rate                    : 3 111 kb/s
    Channel(s)                  : 6 channels
    Channel layout              : C L R Ls Rs LFE
    Sampling rate               : 48.0 kHz
    Frame rate                  : 93.750 FPS (512 SPF)
    Bit depth                   : 24 bits
    Compression mode            : Lossless
    Stream size                 : 2.17 GiB (15%)
    Title                       : Ingles [CinemaniaHDD]
    Language                    : English
    Default                     : No
    Forced                      : No
    Original source medium      : Blu-ray

    Text #1
    ID                          : 4
    Format                      : UTF-8
    Codec ID                    : S_TEXT/UTF8
    Codec ID/Info               : UTF-8 Plain Text
    Duration                    : 1 h 33 min
    Bit rate                    : 0 b/s
    Count of elements           : 18
    Stream size                 : 390 Bytes (0%)
    Title                       : Forzados-SRT [CinemaniaHDD]
    Language                    : Spanish
    Default                     : Yes
    Forced                      : Yes

    Text #2
    ID                          : 5
    Format                      : UTF-8
    Codec ID                    : S_TEXT/UTF8
    Codec ID/Info               : UTF-8 Plain Text
    Duration                    : 1 h 38 min
    Bit rate                    : 42 b/s
    Count of elements           : 1007
    Stream size                 : 30.2 KiB (0%)
    Title                       : Español-SRT [CinemaniaHDD]
    Language                    : Spanish
    Default                     : No
    Forced                      : No

    Text #3
    ID                          : 6
    Format                      : UTF-8
    Codec ID                    : S_TEXT/UTF8
    Codec ID/Info               : UTF-8 Plain Text
    Duration                    : 1 h 32 min
    Bit rate                    : 48 b/s
    Count of elements           : 970
    Stream size                 : 32.6 KiB (0%)
    Title                       : Ingles-SRT [CinemaniaHDD]
    Language                    : English
    Default                     : No
    Forced                      : No

    Menu
    00:00:00.000                : Chapter 01
    00:09:05.294                : Chapter 02
    00:13:43.572                : Chapter 03
    00:21:12.062                : Chapter 04
    00:25:50.090                : Chapter 05
    00:32:44.462                : Chapter 06
    00:41:05.796                : Chapter 07
    00:51:01.892                : Chapter 08
    00:56:21.044                : Chapter 09
    01:01:43.991                : Chapter 10
    01:04:43.588                : Chapter 11
    01:08:18.928                : Chapter 12
    01:13:31.949                : Chapter 13
    01:18:15.357                : Chapter 14
    01:27:04.010                : Chapter 15
    01:29:50.301                : Chapter 16
    01:35:06.492                : Chapter 17
    01:39:43.644                : Chapter 18

  • Peso: 14.9 GiB

Sinopsis

Descargar El Pequeño Detective (2020) REMUX 1080p Latino. Un niño detective que alguna vez fue célebre, ahora de 31 años, continúa resolviendo los mismos misterios triviales entre resacas y episodios de autocompasión. Hasta que un cliente ingenuo le trae su primer caso ‘adulto’, para descubrir quién asesinó brutalmente a su novio.

Ficha técnica

Video trailer de la película

Enlaces de descarga

Rip de Bluray

Descargar El Pequeño Detective (2020) REMUX 1080p Latino




Aportes de DPeliculasHDmega la pass es:dpeliculashdmega.org Aportes de CinemaniaHD la pass es:cinemaniahdd.com
Guardado en : Comedia , Drama , Misterio , Remux

Películas relacionadas

El Pequeño Detective (2020) REMUX 1080p Latino pelicula full hd, El Pequeño Detective (2020) REMUX 1080p Latino mega latino, El Pequeño Detective (2020) REMUX 1080p Latino 4k latino, El Pequeño Detective (2020) REMUX 1080p Latino pelicula completa, El Pequeño Detective (2020) REMUX 1080p Latino descargar gratis, descargar El Pequeño Detective (2020) REMUX 1080p Latino pelicula latino, El Pequeño Detective (2020) REMUX 1080p Latino 1 link mega, El Pequeño Detective (2020) REMUX 1080p Latino 1 link google drive, El Pequeño Detective (2020) REMUX 1080p Latino hd 1080p latino.
Comentarios 0