El Papa Francisco. Un hombre de palabra (2018) HD 1080p Latino

660 vistas
1 estrella2 estrellas3 estrellas4 estrellas5 estrellas (Ninguna valoración todavía)
Cargando…

Información de El Papa Francisco. Un hombre de palabra (2018) HD 1080p Latino

Datos de la película

  • Calidad: 1080p
  • Audio: Español Latino AC3 5.1 DVD - Ingles AC3 5.1 BLURAY
  • Subtitulos: Español Latino SRT
  • Resolución: 1920x1036
  • Formato: MKV
  • Codec: H.264
  • Encoder: chesse92
  • Mediainfo: Clic para Mostrar Datos Ver
  • Pope Francis A Man Of His Word (2018) HD 1080p Latino.mkv
    Format                      : Matroska
    Format version              : Version 4
    File size                   : 2.81 GiB
    Duration                    : 1 h 36 min
    Overall bit rate            : 4 182 kb/s
    Movie name                  : Cinemaniahdd.net
    Encoded date                : UTC 2019-01-03 04:08:26 / UTC 2019-01-03T01:33:55Z
    Writing application         : mkvmerge v29.0.0 ('Like It Or Not') 64-bit
    Writing library             : libebml v1.3.6 + libmatroska v1.4.9 / Lavf57.7.2

    Video
    ID                          : 1
    Format                      : AVC
    Format/Info                 : Advanced Video Codec
    Format profile              : [email protected]
    Format settings             : CABAC / 4 Ref Frames
    Format settings, CABAC      : Yes
    Format settings, ReFrames   : 4 frames
    Codec ID                    : V_MPEG4/ISO/AVC
    Duration                    : 1 h 36 min
    Bit rate                    : 3 500 kb/s
    Width                       : 1 920 pixels
    Height                      : 1 036 pixels
    Display aspect ratio        : 1.85:1
    Frame rate mode             : Constant
    Frame rate                  : 23.976 (24000/1001) FPS
    Color space                 : YUV
    Chroma subsampling          : 4:2:0
    Bit depth                   : 8 bits
    Scan type                   : Progressive
    Bits/(Pixel*Frame)          : 0.073
    Stream size                 : 2.25 GiB (80%)
    Writing library             : x264 core 155 r2901 7d0ff22
    Encoding settings           : cabac=1 / ref=4 / deblock=1:0:0 / analyse=0x3:0x113 / me=hex / subme=8 / psy=1 / psy_rd=1.00:0.00 / mixed_ref=1 / me_range=16 / chroma_me=1 / trellis=2 / 8x8dct=1 / cqm=0 / deadzone=21,11 / fast_pskip=1 / chroma_qp_offset=-2 / threads=32 / lookahead_threads=5 / sliced_threads=0 / nr=0 / decimate=1 / interlaced=0 / bluray_compat=0 / constrained_intra=0 / bframes=3 / b_pyramid=2 / b_adapt=1 / b_bias=0 / direct=3 / weightb=1 / open_gop=0 / weightp=2 / keyint=240 / keyint_min=24 / scenecut=40 / intra_refresh=0 / rc_lookahead=50 / rc=abr / mbtree=1 / bitrate=3500 / ratetol=1.0 / qcomp=0.60 / qpmin=0 / qpmax=69 / qpstep=4 / vbv_maxrate=62500 / vbv_bufsize=78125 / nal_hrd=none / filler=0 / ip_ratio=1.40 / aq=1:1.00
    Default                     : Yes
    Forced                      : No
    Color range                 : Limited
    Color primaries             : BT.709
    Transfer characteristics    : BT.709
    Matrix coefficients         : BT.709

    Audio #1
    ID                          : 2
    Format                      : AC-3
    Format/Info                 : Audio Coding 3
    Commercial name             : Dolby Digital
    Codec ID                    : A_AC3
    Duration                    : 1 h 36 min
    Bit rate mode               : Constant
    Bit rate                    : 384 kb/s
    Channel(s)                  : 6 channels
    Channel layout              : L R C LFE Ls Rs
    Sampling rate               : 48.0 kHz
    Frame rate                  : 31.250 FPS (1536 SPF)
    Bit depth                   : 16 bits
    Compression mode            : Lossy
    Delay relative to video     : -5 ms
    Stream size                 : 264 MiB (9%)
    Language                    : Spanish
    Service kind                : Complete Main
    Default                     : Yes
    Forced                      : No

    Audio #2
    ID                          : 3
    Format                      : AC-3
    Format/Info                 : Audio Coding 3
    Commercial name             : Dolby Digital
    Codec ID                    : A_AC3
    Duration                    : 1 h 36 min
    Bit rate mode               : Constant
    Bit rate                    : 448 kb/s
    Channel(s)                  : 6 channels
    Channel layout              : L R C LFE Ls Rs
    Sampling rate               : 48.0 kHz
    Frame rate                  : 31.250 FPS (1536 SPF)
    Bit depth                   : 16 bits
    Compression mode            : Lossy
    Stream size                 : 309 MiB (11%)
    Title                       : Surround
    Language                    : English
    Service kind                : Complete Main
    Default                     : No
    Forced                      : No

    Text
    ID                          : 4
    Format                      : UTF-8
    Codec ID                    : S_TEXT/UTF8
    Codec ID/Info               : UTF-8 Plain Text
    Duration                    : 1 h 30 min
    Bit rate                    : 31 b/s
    Count of elements           : 580
    Stream size                 : 20.6 KiB (0%)
    Language                    : Spanish
    Default                     : Yes
    Forced                      : No

    Menu
    00:00:00.000                : :00:00:00.000
    00:05:23.406                : :00:05:23.323
    00:11:03.746                : :00:11:03.746
    00:15:36.477                : :00:15:36.477
    00:20:58.132                : :00:20:58.132
    00:25:20.477                : :00:25:20.477
    00:28:57.110                : :00:28:57.110
    00:32:41.042                : :00:32:41.042
    00:37:16.860                : :00:37:16.818
    00:41:31.447                : :00:41:31.447
    00:46:37.253                : :00:46:37.253
    00:53:53.480                : :00:53:53.397
    00:59:20.390                : :00:59:20.390
    01:03:05.949                : :01:03:05.949
    01:08:14.048                : :01:08:14.048
    01:13:08.718                : :01:13:08.676
    01:17:53.169                : :01:17:53.168
    01:21:14.953                : :01:21:14.953
    01:26:20.467                : :01:26:20.467
    01:32:18.575                : :01:32:18.533

  • Peso: 2.81 GiB

Sinopsis

El documental muestra una mirada más cercana del Papa Franciso y su labor religiosa. Se lanzarán una serie de preguntas con las que se intentará dar respuesta a las miles de cuestiones que plantean los creyentes de todo el planeta. La cámara seguirá los viajes del Papa Francisco desde a las Naciones Unidas y la Zona Cero hasta Yad Vashem, el Centro Mundial de Conmemoración del Holocausto en Jerusalén. Una película documental escrita y dirigida por Wim Wnders (Buena Vista Social Club, Wings Of Desire).

Ficha técnica

  • Titulo original: Pope Francis: A Man of His Word
  • Fecha de lanzamiento: 18-05-2018 (France, Germany, Holy See, Italy, Switzerland)
  • Director: Wim Wenders
  • Género: Documental, HD 1080p
  • Puntuación: 0.0 0 votos
  • Duración:
    1h 36m

Video trailer de la película

Enlaces de descarga

Rip de Bluray

Descargar El Papa Francisco. Un hombre de palabra (2018) HD 1080p Latino




Aportes de DPeliculasHDmega la pass es:dpeliculashdmega.org Aportes de CinemaniaHD la pass es:cinemaniahdd.com
Guardado en : Documental , HD 1080p

Películas relacionadas

  • Escape Room (2019) 1080p Latino

    2019
    Escape Room (2019) 1080p Latino

    3.7 1h 39m 2019

    Thiller psicológico en el que seis extraños deberán usar su ingenio para ir encontrando pistas o morir...

    Director: Robyn Glaser

    Género: Acción

    Actores: Yorick van Wageningen

  • Patrick (2018) 1080p Castellano

    2018
    Patrick (2018) 1080p Castellano

    0.0 1h 34m 2018

    Descargar Patrick (2018) 1080p Castellano, Mega, Google Drive. Sarah Francis es una profesora a quien...

    Director: Mandie Fletcher

    Género: Comedia

    Actores: Yurj Buzzi

  • The Final Wish (2018) 1080p Subtitulado

    2019
    The Final Wish (2018) 1080p Subtitulado

    4.3 1h 35m 2019

    Descargar The Final Wish (2018) 1080p Subtitulado. Aaron (Michael Welch) es un abogado con problemas...

    Director: Timothy Woodward Jr.

    Género: HD 1080p

    Actores: Tony Todd

Comentarios 0