×

¿Problemas para descargar con Mozilla, EDGE? Deshabilita la opción "Abrir vinculos en una pestaña nueva" tal como lo muestra ésta imagen.

El padre (2020) REMUX 1080p Latino

209 vistas

Información de El padre (2020) REMUX 1080p Latino

Datos de la película

  • Calidad: Full 1080p
  • Audio: Se especifica abajo de la Sinopsis
  • Subtitulos: Español Latino SRT- FORZADOS SRT
  • Resolución: 1920x1080p
  • Formato: MKV
  • Codec: H.264
  • Encoder: CinemaniaHD
  • Mediainfo: Clic para Mostrar Datos Ver
  • El Padre (2020) REMUX 1080p Latino.mkv
    Format                      : Matroska
    Format version              : Version 4
    File size                   : 21.1 GiB
    Duration                    : 1 h 36 min
    Overall bit rate mode       : Variable
    Overall bit rate            : 31.2 Mb/s
    Movie name                  : The Father (2020) CinemaniaHDD.Net
    Encoded date                : UTC 2021-05-25 00:45:52
    Writing application         : mkvmerge v56.1.0 ('My Friend') 64-bit
    Writing library             : libebml v1.4.2 + libmatroska v1.6.4
    Attachments                 : CINEMANIAHD.png

    Video
    ID                          : 1
    Format                      : AVC
    Format/Info                 : Advanced Video Codec
    Format profile              : High@L4.1
    Format settings             : CABAC / 2 Ref Frames
    Format settings, CABAC      : Yes
    Format settings, Reference  : 2 frames
    Format settings, GOP        : M=1, N=10
    Codec ID                    : V_MPEG4/ISO/AVC
    Duration                    : 1 h 36 min
    Bit rate mode               : Variable
    Bit rate                    : 27.9 Mb/s
    Width                       : 1 920 pixels
    Height                      : 1 080 pixels
    Display aspect ratio        : 16:9
    Frame rate mode             : Constant
    Frame rate                  : 23.976 (24000/1001) FPS
    Color space                 : YUV
    Chroma subsampling          : 4:2:0
    Bit depth                   : 8 bits
    Scan type                   : Progressive
    Bits/(Pixel*Frame)          : 0.560
    Stream size                 : 18.9 GiB (89%)
    Title                       : REMUX HD1080p [CinemaniaHDD]
    Language                    : English
    Default                     : Yes
    Forced                      : No

    Audio #1
    ID                          : 2
    Format                      : AC-3
    Format/Info                 : Audio Coding 3
    Commercial name             : Dolby Digital
    Codec ID                    : A_AC3
    Duration                    : 1 h 36 min
    Bit rate mode               : Constant
    Bit rate                    : 256 kb/s
    Channel(s)                  : 2 channels
    Channel layout              : L R
    Sampling rate               : 48.0 kHz
    Frame rate                  : 31.250 FPS (1536 SPF)
    Compression mode            : Lossy
    Stream size                 : 178 MiB (1%)
    Title                       : Español Latino [CinemaniaHDD]
    Language                    : Spanish
    Service kind                : Complete Main
    Default                     : Yes
    Forced                      : No

    Audio #2
    ID                          : 3
    Format                      : DTS XLL
    Format/Info                 : Digital Theater Systems
    Commercial name             : DTS-HD Master Audio
    Codec ID                    : A_DTS
    Duration                    : 1 h 36 min
    Bit rate mode               : Variable
    Bit rate                    : 3 071 kb/s
    Channel(s)                  : 6 channels
    Channel layout              : C L R Ls Rs LFE
    Sampling rate               : 48.0 kHz
    Frame rate                  : 93.750 FPS (512 SPF)
    Bit depth                   : 24 bits
    Compression mode            : Lossless
    Stream size                 : 2.08 GiB (10%)
    Title                       : Ingles [CinemaniaHDD]
    Language                    : English
    Default                     : No
    Forced                      : No

    Text #1
    ID                          : 4
    Format                      : UTF-8
    Codec ID                    : S_TEXT/UTF8
    Codec ID/Info               : UTF-8 Plain Text
    Duration                    : 57 min 32 s
    Bit rate                    : 0 b/s
    Count of elements           : 2
    Stream size                 : 99.0 Bytes (0%)
    Title                       : Forzados-SRT [CinemaniaHDD]
    Language                    : Spanish
    Default                     : Yes
    Forced                      : No

    Text #2
    ID                          : 5
    Format                      : UTF-8
    Codec ID                    : S_TEXT/UTF8
    Codec ID/Info               : UTF-8 Plain Text
    Duration                    : 1 h 32 min
    Bit rate                    : 55 b/s
    Count of elements           : 1233
    Stream size                 : 37.6 KiB (0%)
    Title                       : Español-SRT [CinemaniaHDD]
    Language                    : Spanish
    Default                     : No
    Forced                      : No

    Text #3
    ID                          : 6
    Format                      : UTF-8
    Codec ID                    : S_TEXT/UTF8
    Codec ID/Info               : UTF-8 Plain Text
    Duration                    : 1 h 30 min
    Bit rate                    : 55 b/s
    Count of elements           : 1266
    Stream size                 : 36.9 KiB (0%)
    Title                       : Ingles-SRT [CinemaniaHDD]
    Language                    : English
    Default                     : No
    Forced                      : No

    Menu
    00:00:00.000                : :Chapter 1
    00:06:30.473                : :Chapter 2
    00:14:07.137                : :Chapter 3
    00:25:32.280                : :Chapter 4
    00:35:09.982                : :Chapter 5
    00:39:52.765                : :Chapter 6
    00:45:57.546                : :Chapter 7
    00:50:33.697                : :Chapter 8
    00:54:12.123                : :Chapter 9
    00:58:36.888                : :Chapter 10
    01:02:19.777                : :Chapter 11
    01:07:21.537                : :Chapter 12
    01:11:04.218                : :Chapter 13
    01:13:52.511                : :Chapter 14
    01:20:54.558                : :Chapter 15
    01:22:24.022                : :Chapter 16

  • Peso: 21.1 GiB

Sinopsis

Descargar El padre (2020) REMUX 1080p Latino. Anthony (Anthony Hopkins), un hombre de 80 años mordaz, algo travieso y que tercamente ha decidido vivir solo, rechaza todos y cada uno de las cuidadoras que su hija Anne (Olivia Colman) intenta contratar para que le ayuden en casa. Está desesperada porque ya no puede visitarle a diario y siente que la mente de su padre empieza a fallar y se desconecta cada vez más de la realidad. Anne sufre la paulatina pérdida de su padre a medida que la mente de éste se deteriora, pero también se aferra al derecho a vivir su propia vida.

Español Latino AC3 2.0 WebDL – Ingles DTS-HD 5.1 Bluray

Ficha técnica

  • Titulo original: The Father
  • Fecha de lanzamiento: 23-12-2020 (France, United Kingdom)
  • Director: Florian Zeller
  • Género: Drama, Remux

Video trailer de la película

Enlaces de descarga

Rip de Bluray

Descargar El padre (2020) REMUX 1080p Latino




Aportes de DPeliculasHDmega la pass es:dpeliculashdmega.org Aportes de CinemaniaHD la pass es:cinemaniahdd.com
Guardado en : Drama , Remux

Películas relacionadas

descargar El padre (2020) REMUX 1080p Latino Full 1080p 1080p gratis, El padre (2020) REMUX 1080p Latino Full 1080p mega 1 link, El padre (2020) REMUX 1080p Latino Full 1080p pelicula completa, descargar El padre (2020) REMUX 1080p Latino Full 1080p gratis en mega.

El padre (2020) REMUX 1080p Latino pelicula full hd, El padre (2020) REMUX 1080p Latino mega latino, El padre (2020) REMUX 1080p Latino 4k latino, El padre (2020) REMUX 1080p Latino pelicula completa, El padre (2020) REMUX 1080p Latino descargar gratis, descargar El padre (2020) REMUX 1080p Latino pelicula latino, El padre (2020) REMUX 1080p Latino 1 link mega, El padre (2020) REMUX 1080p Latino 1 link google drive, El padre (2020) REMUX 1080p Latino hd 1080p latino.
Comentarios 0