×

¿Problemas para descargar con Mozilla, EDGE? Deshabilita la opción "Abrir vinculos en una pestaña nueva" tal como lo muestra ésta imagen.

El padre (2020) Full HD PLACEBO Latino – CMHDD

307 vistas

Información de El padre (2020) Full HD PLACEBO Latino – CMHDD

Datos de la película

  • Calidad: Full 1080p
  • Audio: Se especifica abajo de la Sinopsis
  • Subtitulos: Español Latino SRT
  • Resolución: 1920x1080p
  • Formato: MKV
  • Codec: H.264
  • Encoder: CinemaniaHDD
  • Mediainfo: Clic para Mostrar Datos Ver
  • Format                      : Matroska
    Format version              : Version 4
    File size                   : 3.91 GiB
    Duration                    : 1 h 36 min
    Overall bit rate mode       : Variable
    Overall bit rate            : 5 774 kb/s
    Movie name                  : El padre (2020) Full HD PLACEBO Latino - CMHDD
    Encoded date                : UTC 2021-05-25 01:02:30
    Writing application         : mkvmerge v56.1.0 ('My Friend') 64-bit
    Writing library             : libebml v1.4.2 + libmatroska v1.6.4

    Video
    ID                          : 1
    Format                      : AVC
    Format/Info                 : Advanced Video Codec
    Format profile              : High@L4.1
    Format settings             : CABAC / 4 Ref Frames
    Format settings, CABAC      : Yes
    Format settings, Reference  : 4 frames
    Codec ID                    : V_MPEG4/ISO/AVC
    Duration                    : 1 h 36 min
    Bit rate                    : 2 444 kb/s
    Width                       : 1 920 pixels
    Height                      : 1 080 pixels
    Display aspect ratio        : 16:9
    Frame rate mode             : Constant
    Frame rate                  : 23.976 (24000/1001) FPS
    Color space                 : YUV
    Chroma subsampling          : 4:2:0
    Bit depth                   : 8 bits
    Scan type                   : Progressive
    Bits/(Pixel*Frame)          : 0.049
    Stream size                 : 1.66 GiB (42%)
    Writing library             : x264 core 157 r2935 545de2f
    Encoding settings           : cabac=1 / ref=4 / deblock=1:0:0 / analyse=0x3:0x133 / me=tesa / subme=11 / psy=1 / psy_rd=1.00:0.00 / mixed_ref=1 / me_range=24 / chroma_me=1 / trellis=2 / 8x8dct=1 / cqm=0 / deadzone=21,11 / fast_pskip=0 / chroma_qp_offset=-2 / threads=24 / lookahead_threads=6 / sliced_threads=0 / nr=0 / decimate=1 / interlaced=0 / bluray_compat=0 / constrained_intra=0 / bframes=16 / b_pyramid=2 / b_adapt=2 / b_bias=0 / direct=3 / weightb=1 / open_gop=0 / weightp=2 / keyint=240 / keyint_min=24 / scenecut=40 / intra_refresh=0 / rc_lookahead=60 / rc=crf / mbtree=1 / crf=19.0 / qcomp=0.60 / qpmin=0 / qpmax=69 / qpstep=4 / vbv_maxrate=62500 / vbv_bufsize=78125 / crf_max=0.0 / nal_hrd=none / filler=0 / ip_ratio=1.40 / aq=1:1.00
    Default                     : Yes
    Forced                      : No
    Color range                 : Limited
    Color primaries             : BT.709
    Transfer characteristics    : BT.709
    Matrix coefficients         : BT.709

    Audio #1
    ID                          : 2
    Format                      : AC-3
    Format/Info                 : Audio Coding 3
    Commercial name             : Dolby Digital
    Codec ID                    : A_AC3
    Duration                    : 1 h 36 min
    Bit rate mode               : Constant
    Bit rate                    : 256 kb/s
    Channel(s)                  : 2 channels
    Channel layout              : L R
    Sampling rate               : 48.0 kHz
    Frame rate                  : 31.250 FPS (1536 SPF)
    Compression mode            : Lossy
    Stream size                 : 178 MiB (4%)
    Language                    : Spanish
    Service kind                : Complete Main
    Default                     : Yes
    Forced                      : No

    Audio #2
    ID                          : 3
    Format                      : DTS XLL
    Format/Info                 : Digital Theater Systems
    Commercial name             : DTS-HD Master Audio
    Codec ID                    : A_DTS
    Duration                    : 1 h 36 min
    Bit rate mode               : Variable
    Bit rate                    : 3 071 kb/s
    Channel(s)                  : 6 channels
    Channel layout              : C L R Ls Rs LFE
    Sampling rate               : 48.0 kHz
    Frame rate                  : 93.750 FPS (512 SPF)
    Bit depth                   : 24 bits
    Compression mode            : Lossless
    Stream size                 : 2.08 GiB (53%)
    Language                    : English
    Default                     : No
    Forced                      : No

    Text
    ID                          : 4
    Format                      : UTF-8
    Codec ID                    : S_TEXT/UTF8
    Codec ID/Info               : UTF-8 Plain Text
    Duration                    : 1 h 32 min
    Bit rate                    : 55 b/s
    Count of elements           : 1233
    Stream size                 : 37.6 KiB (0%)
    Language                    : Spanish
    Default                     : No
    Forced                      : No

    Menu
    00:00:00.000                : :Chapter 1
    00:06:30.473                : :Chapter 2
    00:14:07.138                : :Chapter 3
    00:25:32.281                : :Chapter 4
    00:35:09.983                : :Chapter 5
    00:39:52.765                : :Chapter 6
    00:45:57.546                : :Chapter 7
    00:50:33.697                : :Chapter 8
    00:54:12.124                : :Chapter 9
    00:58:36.888                : :Chapter 10
    01:02:19.778                : :Chapter 11
    01:07:21.538                : :Chapter 12
    01:11:04.218                : :Chapter 13
    01:13:52.511                : :Chapter 14
    01:20:54.558                : :Chapter 15
    01:22:24.022                : :Chapter 16

  • Peso: 3.91 GiB

Sinopsis

Descargar El padre (2020) Full HD PLACEBO Latino – CMHDD. Anthony (Anthony Hopkins), un hombre de 80 años mordaz, algo travieso y que tercamente ha decidido vivir solo, rechaza todos y cada uno de las cuidadoras que su hija Anne (Olivia Colman) intenta contratar para que le ayuden en casa. Está desesperada porque ya no puede visitarle a diario y siente que la mente de su padre empieza a fallar y se desconecta cada vez más de la realidad. Anne sufre la paulatina pérdida de su padre a medida que la mente de éste se deteriora, pero también se aferra al derecho a vivir su propia vida.

Latino: AC3 2.0  –  Ingles: DTS-HD MA 5.1

Ficha técnica

Video trailer de la película

Enlaces de descarga

Rip de Bluray

Descargar El padre (2020) Full HD PLACEBO Latino – CMHDD




Aportes de DPeliculasHDmega la pass es:dpeliculashdmega.org Aportes de CinemaniaHD la pass es:cinemaniahdd.com

Películas relacionadas

  • Noche sin paz (2022) PLACEBO Full HD 1080p Latino

    Noche sin paz (2022) PLACEBO Full HD 1080p Latino

    2022
    Noche sin paz (2022) PLACEBO Full HD 1080p Latino

    1h 41m 2022

    Descargar Noche sin paz (2022) PLACEBO Full HD 1080p Latino. Cuando un equipo de mercenarios irrumpe...

    Director: Tyshana Hobson

    Género: Acción

    Actores: Yoon Cha-Lee

  • Narvik (2022) NF WEB-DL 1080p Latino

    Narvik (2022) NF WEB-DL 1080p Latino

    2022
    Narvik (2022) NF WEB-DL 1080p Latino

    1h 48m 2022

    Descargar Narvik (2022) NF WEB-DL 1080p Latino. Abril de 1940. Los ojos del mundo están puestos en Narvik,...

    Director: Suzanne Svae-Johansen

    Género: Acción

    Actores: Torfinn Nag

  • Groundhog Day (1993) REMUX 4K HDR Latino – CMHDD

    Groundhog Day (1993) REMUX 4K HDR Latino – CMHDD

    1993
    Groundhog Day (1993) REMUX 4K HDR Latino – CMHDD

    1h 41m 1993

    Phil, hombre del tiempo de una cadena de televisión, es enviado un año más a Punxstawnwey, a cubrir...

    Director: Sam Hoffman

    Género: Comedia

    Actores: Willie Garson

descargar El padre (2020) Full HD PLACEBO Latino – CMHDD Full 1080p 1080p gratis, El padre (2020) Full HD PLACEBO Latino – CMHDD Full 1080p mega 1 link, El padre (2020) Full HD PLACEBO Latino – CMHDD Full 1080p pelicula completa, descargar El padre (2020) Full HD PLACEBO Latino – CMHDD Full 1080p gratis en mega.

El padre (2020) Full HD PLACEBO Latino – CMHDD pelicula full hd, El padre (2020) Full HD PLACEBO Latino – CMHDD mega latino, El padre (2020) Full HD PLACEBO Latino – CMHDD 4k latino, El padre (2020) Full HD PLACEBO Latino – CMHDD pelicula completa, El padre (2020) Full HD PLACEBO Latino – CMHDD descargar gratis, descargar El padre (2020) Full HD PLACEBO Latino – CMHDD pelicula latino, El padre (2020) Full HD PLACEBO Latino – CMHDD 1 link mega, El padre (2020) Full HD PLACEBO Latino – CMHDD 1 link google drive, El padre (2020) Full HD PLACEBO Latino – CMHDD hd 1080p latino.
Comentarios 0