×

¿Problemas para descargar con Mozilla, EDGE? Deshabilita la opción "Abrir vinculos en una pestaña nueva" tal como lo muestra ésta imagen.

El paciente inglés (1996) REMUX 1080p Latino – CMHDD

436 vistas

Información de El paciente inglés (1996) REMUX 1080p Latino – CMHDD

Datos de la película

  • Calidad: Full 1080p
  • Audio: Español Latino AC3 2.0 DVD - Ingles DTS 5.1 BLURAY
  • Subtitulos: Español Latino SRT- FORZADOS SRT
  • Resolución: 1920x1080p
  • Formato: MKV
  • Codec: H.264
  • Encoder: Dracarys
  • Mediainfo: Clic para Mostrar Datos Ver
  • Format                      : Matroska
    Format version              : Version 4
    File size                   : 28.8 GiB
    Duration                    : 2 h 41 min
    Overall bit rate mode       : Variable
    Overall bit rate            : 25.4 Mb/s
    Movie name                  : El paciente inglés (1996) REMUX 1080p Latino - CMHDD
    Encoded date                : UTC 2020-05-10 01:45:16
    Writing application         : mkvmerge v46.0.0 ('No Deeper Escape') 64-bit
    Writing library             : libebml v1.3.10 + libmatroska v1.5.2

    Video
    ID                          : 1
    Format                      : AVC
    Format/Info                 : Advanced Video Codec
    Format profile              : High@L4.1
    Format settings             : CABAC / 4 Ref Frames
    Format settings, CABAC      : Yes
    Format settings, Reference  : 4 frames
    Codec ID                    : V_MPEG4/ISO/AVC
    Duration                    : 2 h 41 min
    Bit rate mode               : Variable
    Bit rate                    : 23.4 Mb/s
    Maximum bit rate            : 37.0 Mb/s
    Width                       : 1 920 pixels
    Height                      : 1 080 pixels
    Display aspect ratio        : 16:9
    Frame rate mode             : Constant
    Frame rate                  : 23.976 (24000/1001) FPS
    Color space                 : YUV
    Chroma subsampling          : 4:2:0
    Bit depth                   : 8 bits
    Scan type                   : Progressive
    Bits/(Pixel*Frame)          : 0.471
    Stream size                 : 26.5 GiB (92%)
    Language                    : English
    Default                     : No
    Forced                      : No

    Audio #1
    ID                          : 2
    Format                      : AC-3
    Format/Info                 : Audio Coding 3
    Commercial name             : Dolby Digital
    Codec ID                    : A_AC3
    Duration                    : 2 h 41 min
    Bit rate mode               : Constant
    Bit rate                    : 256 kb/s
    Channel(s)                  : 2 channels
    Channel layout              : L R
    Sampling rate               : 48.0 kHz
    Frame rate                  : 31.250 FPS (1536 SPF)
    Compression mode            : Lossy
    Delay relative to video     : 1 s 800 ms
    Stream size                 : 296 MiB (1%)
    Language                    : Spanish
    Service kind                : Complete Main
    Default                     : Yes
    Forced                      : No

    Audio #2
    ID                          : 3
    Format                      : DTS XLL
    Format/Info                 : Digital Theater Systems
    Commercial name             : DTS-HD Master Audio
    Codec ID                    : A_DTS
    Duration                    : 2 h 41 min
    Bit rate mode               : Variable
    Bit rate                    : 1 769 kb/s
    Channel(s)                  : 6 channels
    Channel layout              : C L R Ls Rs LFE
    Sampling rate               : 48.0 kHz
    Frame rate                  : 93.750 FPS (512 SPF)
    Bit depth                   : 16 bits
    Compression mode            : Lossless
    Stream size                 : 2.00 GiB (7%)
    Title                       : Surround 5.1
    Language                    : English
    Default                     : No
    Forced                      : No

    Text #1
    ID                          : 4
    Format                      : UTF-8
    Codec ID                    : S_TEXT/UTF8
    Codec ID/Info               : UTF-8 Plain Text
    Duration                    : 2 h 22 min
    Bit rate                    : 0 b/s
    Count of elements           : 14
    Stream size                 : 565 Bytes (0%)
    Title                       : Forzados
    Language                    : Spanish
    Default                     : Yes
    Forced                      : No

    Text #2
    ID                          : 5
    Format                      : UTF-8
    Codec ID                    : S_TEXT/UTF8
    Codec ID/Info               : UTF-8 Plain Text
    Duration                    : 2 h 32 min
    Bit rate                    : 39 b/s
    Count of elements           : 1435
    Stream size                 : 44.2 KiB (0%)
    Title                       : Completos
    Language                    : Spanish
    Default                     : No
    Forced                      : No

    Menu
    00:00:00.000                : en:Chapter 01
    00:14:11.684                : en:Chapter 02
    00:27:29.522                : en:Chapter 03
    00:39:47.343                : en:Chapter 04
    00:53:24.576                : en:Chapter 05
    01:07:52.526                : en:Chapter 06
    01:21:32.429                : en:Chapter 07
    01:34:38.255                : en:Chapter 08
    01:48:54.569                : en:Chapter 09
    02:00:28.137                : en:Chapter 10
    02:15:20.362                : en:Chapter 11
    02:29:15.571                : en:Chapter 12

  • Peso: 28.8 GiB

Sinopsis

Finales de la Segunda Guerra Mundial. Un hombre herido viaja en una caravana por una carretera de Italia, pero su estado es tan grave que se tiene que quedar en un monasterio deshabitado y semiderruido, donde se encarga de cuidarlo Hana, una enfermera canadiense. Su cuerpo está totalmente quemado a consecuencia de un accidente sufrido en África, pero todavía tiene tiempo para contarle la trágica historia de su vida.

Ficha técnica

Video trailer de la película

Enlaces de descarga

Rip de Bluray

Descargar El paciente inglés (1996) REMUX 1080p Latino – CMHDD


Aportes de DPeliculasHDmega la pass es:dpeliculashdmega.org Aportes de CinemaniaHD la pass es:cinemaniahdd.com
Guardado en : Bélica , Drama , Reality , Romance

Películas relacionadas

descargar El paciente inglés (1996) REMUX 1080p Latino – CMHDD Full 1080p 1080p gratis, El paciente inglés (1996) REMUX 1080p Latino – CMHDD Full 1080p mega 1 link, El paciente inglés (1996) REMUX 1080p Latino – CMHDD Full 1080p pelicula completa, descargar El paciente inglés (1996) REMUX 1080p Latino – CMHDD Full 1080p gratis en mega.

El paciente inglés (1996) REMUX 1080p Latino – CMHDD pelicula full hd, El paciente inglés (1996) REMUX 1080p Latino – CMHDD mega latino, El paciente inglés (1996) REMUX 1080p Latino – CMHDD 4k latino, El paciente inglés (1996) REMUX 1080p Latino – CMHDD pelicula completa, El paciente inglés (1996) REMUX 1080p Latino – CMHDD descargar gratis, descargar El paciente inglés (1996) REMUX 1080p Latino – CMHDD pelicula latino, El paciente inglés (1996) REMUX 1080p Latino – CMHDD 1 link mega, El paciente inglés (1996) REMUX 1080p Latino – CMHDD 1 link google drive, El paciente inglés (1996) REMUX 1080p Latino – CMHDD hd 1080p latino.
Comentarios 0