×

¿Problemas para descargar con Mozilla, EDGE? Deshabilita la opción "Abrir vinculos en una pestaña nueva" tal como lo muestra ésta imagen.

El paciente inglés (1996) Full HD 1080p Latino – CMHDD

460 vistas

Información de El paciente inglés (1996) Full HD 1080p Latino – CMHDD

Datos de la película

  • Calidad: Full 1080p
  • Audio: Español Latino AC3 2.0 DVD - Ingles DTS 5.1 BLURAY
  • Subtitulos: Español Latino SRT- FORZADOS SRT
  • Resolución: 1920x1080p
  • Formato: MKV
  • Codec: H.264
  • Encoder: Dracarys
  • Mediainfo: Clic para Mostrar Datos Ver
  • Format                      : Matroska
    Format version              : Version 4
    File size                   : 13.5 GiB
    Duration                    : 2 h 41 min
    Overall bit rate mode       : Variable
    Overall bit rate            : 12.0 Mb/s
    Movie name                  : El paciente inglés (1996) Full HD 1080p Latino - CMHDD
    Encoded date                : UTC 2020-05-10 01:40:48
    Writing application         : mkvmerge v46.0.0 ('No Deeper Escape') 64-bit
    Writing library             : libebml v1.3.10 + libmatroska v1.5.2 / Lavf58.29.100

    Video
    ID                          : 1
    Format                      : AVC
    Format/Info                 : Advanced Video Codec
    Format profile              : High@L4.1
    Format settings             : CABAC / 4 Ref Frames
    Format settings, CABAC      : Yes
    Format settings, Reference  : 4 frames
    Codec ID                    : V_MPEG4/ISO/AVC
    Duration                    : 2 h 41 min
    Bit rate                    : 9 929 kb/s
    Width                       : 1 920 pixels
    Height                      : 1 080 pixels
    Display aspect ratio        : 16:9
    Frame rate mode             : Constant
    Frame rate                  : 23.976 (24000/1001) FPS
    Color space                 : YUV
    Chroma subsampling          : 4:2:0
    Bit depth                   : 8 bits
    Scan type                   : Progressive
    Bits/(Pixel*Frame)          : 0.200
    Stream size                 : 11.2 GiB (83%)
    Writing library             : x264 core 157 r2935 545de2f
    Encoding settings           : cabac=1 / ref=4 / deblock=1:0:0 / analyse=0x3:0x133 / me=tesa / subme=11 / psy=1 / psy_rd=1.00:0.00 / mixed_ref=1 / me_range=24 / chroma_me=1 / trellis=2 / 8x8dct=1 / cqm=0 / deadzone=21,11 / fast_pskip=0 / chroma_qp_offset=-2 / threads=24 / lookahead_threads=6 / sliced_threads=0 / nr=0 / decimate=1 / interlaced=0 / bluray_compat=0 / constrained_intra=0 / bframes=16 / b_pyramid=2 / b_adapt=2 / b_bias=0 / direct=3 / weightb=1 / open_gop=0 / weightp=2 / keyint=240 / keyint_min=24 / scenecut=40 / intra_refresh=0 / rc_lookahead=60 / rc=crf / mbtree=1 / crf=20.0 / qcomp=0.60 / qpmin=0 / qpmax=69 / qpstep=4 / vbv_maxrate=62500 / vbv_bufsize=78125 / crf_max=0.0 / nal_hrd=none / filler=0 / ip_ratio=1.40 / aq=1:1.00
    Language                    : English
    Default                     : Yes
    Forced                      : No
    Color range                 : Limited
    Color primaries             : BT.709
    Transfer characteristics    : BT.709
    Matrix coefficients         : BT.709

    Audio #1
    ID                          : 2
    Format                      : AC-3
    Format/Info                 : Audio Coding 3
    Commercial name             : Dolby Digital
    Codec ID                    : A_AC3
    Duration                    : 2 h 41 min
    Bit rate mode               : Constant
    Bit rate                    : 256 kb/s
    Channel(s)                  : 2 channels
    Channel layout              : L R
    Sampling rate               : 48.0 kHz
    Frame rate                  : 31.250 FPS (1536 SPF)
    Compression mode            : Lossy
    Delay relative to video     : 1 s 800 ms
    Stream size                 : 296 MiB (2%)
    Language                    : Spanish
    Service kind                : Complete Main
    Default                     : No
    Forced                      : No

    Audio #2
    ID                          : 3
    Format                      : DTS XLL
    Format/Info                 : Digital Theater Systems
    Commercial name             : DTS-HD Master Audio
    Codec ID                    : A_DTS
    Duration                    : 2 h 41 min
    Bit rate mode               : Variable
    Bit rate                    : 1 769 kb/s
    Channel(s)                  : 6 channels
    Channel layout              : C L R Ls Rs LFE
    Sampling rate               : 48.0 kHz
    Frame rate                  : 93.750 FPS (512 SPF)
    Bit depth                   : 16 bits
    Compression mode            : Lossless
    Stream size                 : 2.00 GiB (15%)
    Language                    : English
    Default                     : Yes
    Forced                      : No

    Text #1
    ID                          : 4
    Format                      : UTF-8
    Codec ID                    : S_TEXT/UTF8
    Codec ID/Info               : UTF-8 Plain Text
    Duration                    : 2 h 22 min
    Bit rate                    : 0 b/s
    Count of elements           : 14
    Stream size                 : 565 Bytes (0%)
    Title                       : Forzados
    Language                    : Spanish
    Default                     : Yes
    Forced                      : No

    Text #2
    ID                          : 5
    Format                      : UTF-8
    Codec ID                    : S_TEXT/UTF8
    Codec ID/Info               : UTF-8 Plain Text
    Duration                    : 2 h 32 min
    Bit rate                    : 39 b/s
    Count of elements           : 1435
    Stream size                 : 44.2 KiB (0%)
    Title                       : Completos
    Language                    : Spanish
    Default                     : No
    Forced                      : No

    Menu
    00:00:00.000                : :Chapter 1
    00:14:11.768                : :Chapter 2
    00:27:29.523                : :Chapter 3
    00:39:47.468                : :Chapter 4
    00:53:24.702                : :Chapter 5
    01:07:52.527                : :Chapter 6
    01:21:32.554                : :Chapter 7
    01:34:38.256                : :Chapter 8
    01:48:54.570                : :Chapter 9
    02:00:28.138                : :Chapter 10
    02:15:20.487                : :Chapter 11
    02:29:15.572                : :Chapter 12

  • Peso: 13.5 GiB

Sinopsis

Finales de la Segunda Guerra Mundial. Un hombre herido viaja en una caravana por una carretera de Italia, pero su estado es tan grave que se tiene que quedar en un monasterio deshabitado y semiderruido, donde se encarga de cuidarlo Hana, una enfermera canadiense. Su cuerpo está totalmente quemado a consecuencia de un accidente sufrido en África, pero todavía tiene tiempo para contarle la trágica historia de su vida.

Ficha técnica

Video trailer de la película

Enlaces de descarga

Rip de Bluray

Descargar El paciente inglés (1996) Full HD 1080p Latino – CMHDD




Aportes de DPeliculasHDmega la pass es:dpeliculashdmega.org Aportes de CinemaniaHD la pass es:cinemaniahdd.com

Películas relacionadas

descargar El paciente inglés (1996) Full HD 1080p Latino – CMHDD Full 1080p 1080p gratis, El paciente inglés (1996) Full HD 1080p Latino – CMHDD Full 1080p mega 1 link, El paciente inglés (1996) Full HD 1080p Latino – CMHDD Full 1080p pelicula completa, descargar El paciente inglés (1996) Full HD 1080p Latino – CMHDD Full 1080p gratis en mega.

El paciente inglés (1996) Full HD 1080p Latino – CMHDD pelicula full hd, El paciente inglés (1996) Full HD 1080p Latino – CMHDD mega latino, El paciente inglés (1996) Full HD 1080p Latino – CMHDD 4k latino, El paciente inglés (1996) Full HD 1080p Latino – CMHDD pelicula completa, El paciente inglés (1996) Full HD 1080p Latino – CMHDD descargar gratis, descargar El paciente inglés (1996) Full HD 1080p Latino – CMHDD pelicula latino, El paciente inglés (1996) Full HD 1080p Latino – CMHDD 1 link mega, El paciente inglés (1996) Full HD 1080p Latino – CMHDD 1 link google drive, El paciente inglés (1996) Full HD 1080p Latino – CMHDD hd 1080p latino.
Comentarios 0