El odio que das (2018) Full 1080p Latino

563 vistas
1 estrella2 estrellas3 estrellas4 estrellas5 estrellas (4 votos, promedio: 3,75 de 5)
Cargando…

Información de El odio que das (2018) Full 1080p Latino

Datos de la película

  • Calidad: Full 1080p
  • Audio: Español Latino AC3 5.1 BLURAY - Ingles DTS 5.1 BLURAY
  • Subtitulos: Español Latino PGS - Ingles PGS
  • Resolución: 1920x1080p
  • Formato: MKV
  • Codec: H.264
  • Encoder: chesse92
  • Mediainfo: Clic para Mostrar Datos Ver
  • Format                      : Matroska
    Format version              : Version 4
    File size                   : 4.96 GiB
    Duration                    : 2 h 13 min
    Overall bit rate            : 5 339 kb/s
    Movie name                  : CinemaniaHDD.net
    Encoded date                : UTC 2019-01-14 02:06:21 / UTC 2019-01-13T06:15:27Z
    Writing application         : mkvmerge v30.1.0 ('Forever And More') 64-bit
    Writing library             : libebml v1.3.6 + libmatroska v1.4.9 / Lavf57.7.2

    Video
    ID                          : 1
    Format                      : AVC
    Format/Info                 : Advanced Video Codec
    Format profile              : [email protected]
    Format settings             : CABAC / 4 Ref Frames
    Format settings, CABAC      : Yes
    Format settings, ReFrames   : 4 frames
    Codec ID                    : V_MPEG4/ISO/AVC
    Duration                    : 2 h 13 min
    Bit rate                    : 3 275 kb/s
    Width                       : 1 920 pixels
    Height                      : 1 080 pixels
    Display aspect ratio        : 16:9
    Frame rate mode             : Constant
    Frame rate                  : 23.976 (24000/1001) FPS
    Color space                 : YUV
    Chroma subsampling          : 4:2:0
    Bit depth                   : 8 bits
    Scan type                   : Progressive
    Bits/(Pixel*Frame)          : 0.066
    Stream size                 : 3.04 GiB (61%)
    Writing library             : x264 core 155 r2901 7d0ff22
    Encoding settings           : cabac=1 / ref=4 / deblock=1:0:0 / analyse=0x3:0x133 / me=esa / subme=10 / psy=1 / psy_rd=1.00:0.00 / mixed_ref=1 / me_range=24 / chroma_me=1 / trellis=2 / 8x8dct=1 / cqm=0 / deadzone=21,11 / fast_pskip=1 / chroma_qp_offset=-2 / threads=34 / lookahead_threads=5 / sliced_threads=0 / nr=0 / decimate=1 / interlaced=0 / bluray_compat=0 / constrained_intra=0 / bframes=8 / b_pyramid=2 / b_adapt=2 / b_bias=0 / direct=3 / weightb=1 / open_gop=0 / weightp=2 / keyint=240 / keyint_min=24 / scenecut=40 / intra_refresh=0 / rc_lookahead=60 / rc=crf / mbtree=1 / crf=20.0 / qcomp=0.60 / qpmin=0 / qpmax=69 / qpstep=4 / vbv_maxrate=62500 / vbv_bufsize=78125 / crf_max=0.0 / nal_hrd=none / filler=0 / ip_ratio=1.40 / aq=1:1.00
    Language                    : English
    Default                     : Yes
    Forced                      : No
    Color range                 : Limited
    Color primaries             : BT.709
    Transfer characteristics    : BT.709
    Matrix coefficients         : BT.709
    Statistics Tags Issue       : mkvmerge v30.1.0 ('Forever And More') 64-bit 2019-01-14 02:06:21 / mkvmerge v30.1.0 ('Forever And More') 64-bit 2019-01-14 02:06:21 / UTC 2019-01-13T06:15:27Z
    FromStats_BitRate           : 3307141
    FromStats_Duration          : 02:13:04.936000000
    FromStats_FrameCount        : 191447
    FromStats_StreamSize        : 3300914268

    Audio #1
    ID                          : 2
    Format                      : AC-3
    Format/Info                 : Audio Coding 3
    Commercial name             : Dolby Digital
    Codec ID                    : A_AC3
    Duration                    : 2 h 13 min
    Bit rate mode               : Constant
    Bit rate                    : 448 kb/s
    Channel(s)                  : 6 channels
    Channel layout              : L R C LFE Ls Rs
    Sampling rate               : 48.0 kHz
    Frame rate                  : 31.250 FPS (1536 SPF)
    Bit depth                   : 16 bits
    Compression mode            : Lossy
    Delay relative to video     : 5 ms
    Stream size                 : 426 MiB (8%)
    Language                    : Spanish
    Service kind                : Complete Main
    Default                     : Yes
    Forced                      : No
    Statistics Tags Issue       : mkvmerge v30.1.0 ('Forever And More') 64-bit 2019-01-14 02:06:21 / mkvmerge v30.1.0 ('Forever And More') 64-bit 2019-01-14 02:06:21 / UTC 2019-01-13T06:15:27Z
    FromStats_BitRate           : 448000
    FromStats_Duration          : 02:13:04.992000000
    FromStats_FrameCount        : 249531
    FromStats_StreamSize        : 447159552

    Audio #2
    ID                          : 3
    Format                      : DTS
    Format/Info                 : Digital Theater Systems
    Codec ID                    : A_DTS
    Duration                    : 2 h 13 min
    Bit rate mode               : Constant
    Bit rate                    : 1 509 kb/s
    Channel(s)                  : 6 channels
    Channel layout              : C L R Ls Rs LFE
    Sampling rate               : 48.0 kHz
    Frame rate                  : 93.750 FPS (512 SPF)
    Bit depth                   : 24 bits
    Compression mode            : Lossy
    Stream size                 : 1.40 GiB (28%)
    Language                    : English
    Default                     : No
    Forced                      : No
    Statistics Tags Issue       : mkvmerge v30.1.0 ('Forever And More') 64-bit 2019-01-14 02:06:21 / mkvmerge v30.1.0 ('Forever And More') 64-bit 2019-01-14 02:06:21 / UTC 2019-01-13T06:15:27Z
    FromStats_BitRate           : 1508999
    FromStats_Duration          : 02:13:04.971000000
    FromStats_FrameCount        : 748591
    FromStats_StreamSize        : 1506165092

    Text #1
    ID                          : 4
    Format                      : PGS
    Muxing mode                 : zlib
    Codec ID                    : S_HDMV/PGS
    Codec ID/Info               : Picture based subtitle format used on BDs/HD-DVDs
    Language                    : Spanish
    Default                     : No
    Forced                      : No
    Statistics Tags Issue       : mkvmerge v30.1.0 ('Forever And More') 64-bit 2019-01-14 02:06:21 / mkvmerge v30.1.0 ('Forever And More') 64-bit 2019-01-14 02:06:21 / UTC 2019-01-13T06:15:27Z
    FromStats_BitRate           : 38577
    FromStats_Duration          : 02:12:22.142000000
    FromStats_FrameCount        : 3556
    FromStats_StreamSize        : 38298835

    Text #2
    ID                          : 5
    Format                      : PGS
    Muxing mode                 : zlib
    Codec ID                    : S_HDMV/PGS
    Codec ID/Info               : Picture based subtitle format used on BDs/HD-DVDs
    Title                       : Forzados
    Language                    : Spanish
    Default                     : Yes
    Forced                      : Yes
    Statistics Tags Issue       : mkvmerge v30.1.0 ('Forever And More') 64-bit 2019-01-14 02:06:21 / mkvmerge v30.1.0 ('Forever And More') 64-bit 2019-01-14 02:06:21 / UTC 2019-01-13T06:15:27Z
    FromStats_BitRate           : 71172
    FromStats_Duration          : 02:12:55.551000000
    FromStats_FrameCount        : 5134
    FromStats_StreamSize        : 70954852

    Text #3
    ID                          : 6
    Format                      : PGS
    Muxing mode                 : zlib
    Codec ID                    : S_HDMV/PGS
    Codec ID/Info               : Picture based subtitle format used on BDs/HD-DVDs
    Language                    : English
    Default                     : No
    Forced                      : No
    Statistics Tags Issue       : mkvmerge v30.1.0 ('Forever And More') 64-bit 2019-01-14 02:06:21 / mkvmerge v30.1.0 ('Forever And More') 64-bit 2019-01-14 02:06:21 / UTC 2019-01-13T06:15:27Z
    FromStats_BitRate           : 53585
    FromStats_Duration          : 02:12:40.202000000
    FromStats_FrameCount        : 4912
    FromStats_StreamSize        : 53318453

    Menu
    00:00:00.000                : :Chapter 1
    00:03:55.777                : :Chapter 2
    00:08:18.081                : :Chapter 3
    00:13:14.252                : :Chapter 4
    00:19:32.129                : :Chapter 5
    00:24:48.320                : :Chapter 6
    00:29:34.314                : :Chapter 7
    00:34:54.217                : :Chapter 8
    00:40:09.532                : :Chapter 9
    00:45:05.411                : :Chapter 10
    00:50:09.215                : :Chapter 11
    00:58:27.587                : :Chapter 12
    01:03:58.376                : :Chapter 13
    01:10:00.988                : :Chapter 14
    01:14:51.278                : :Chapter 15
    01:19:50.786                : :Chapter 16
    01:27:09.599                : :Chapter 17
    01:32:11.484                : :Chapter 18
    01:37:36.225                : :Chapter 19
    01:43:59.066                : :Chapter 20
    01:49:39.156                : :Chapter 21
    01:56:20.432                : :Chapter 22
    01:57:59.906                : :Chapter 23
    02:03:50.965                : :Chapter 24

     

  • Peso: 4.96 GiB

Sinopsis

Criada en un barrio azotado por la pobreza, una niña de 16 años llamada Starr ahora asiste a una escuela suburbana de preparación. Después de que ella sea testigo de cómo un oficial de policía le dispara a su mejor amiga desarmada, se debate entre sus dos mundos muy diferentes mientras intenta decir su verdad.

Ficha técnica

Video trailer de la película

Enlaces de descarga

Rip de Bluray

Descargar El odio que das (2018) Full 1080p Latino




Aportes de DPeliculasHDmega la pass es:dpeliculashdmega.org Aportes de CinemaniaHD la pass es:cinemaniahdd.com
Guardado en : Crimen , Drama , FULL 1080p Plateadas

Películas relacionadas

  • The Punisher (2019) Temporada 2 NF 1080p Latino

    2017
    The Punisher (2019) Temporada 2 NF 1080p Latino

    5.0 0h 53m 2017

    Por ahora, Netflix no ha revelado el contenido de la temporada 2 de "The Punisher", ya que lo único...

    Director: Steve Lightfoot

    Género: Action & Adventure

    Actores: Josh Stewart

  • La buena esposa (2017) Web-DL 1080p Latino

    2018
    La buena esposa (2017) Web-DL 1080p Latino

    0.0 1h 40m 2018

    Descargar La buena esposa (2017) Web-DL 1080p Latino, Mega, Google Drive, Torrent. Joan Castleman (Glenn...

    Director: Björn Runge

    Género: Drama

    Actores: Twinnie Lee Moore

  • Peloton (1986) Full 1080p Latino

    1986
    Peloton (1986) Full 1080p Latino

    0.0 2h 0m 1986

    Descargar Peloton (1986) Full 1080p Latino, Mega, Google Drive, Torrent. Chris Taylor es un ingenuo joven...

    Director: Tim Minear

    Género: Acción

    Actores: Willem Dafoe

  • Escuadrón suicida (2016) Extended 1080p Latino

    2016
    Escuadrón suicida (2016) Extended 1080p Latino

    5.0 2h 3m 2016

    Descargar Escuadrón suicida (2016) Extended 1080p Latino, Mega, Google Drive, Torrent. Mientras el gobierno...

    Director: Shane B. Scott

    Género: Acción

    Actores: William Hainsworth

  • Escuadrón suicida (2016) Extended Full 1080p Latino

    2016
    Escuadrón suicida (2016) Extended Full 1080p Latino

    5.0 2 h 14 min 2016

    Descargar Escuadrón suicida (2016) Extended 1080p Latino, Mega, Google Drive, Torrent. Mientras el gobierno...

    Director: Shane B. Scott

    Género: Acción

    Actores: William Hainsworth

Comentarios 0