El niño con el pijama de rayas (2008) Full HD 1080p Latino

3.140 vistas
1 estrella2 estrellas3 estrellas4 estrellas5 estrellas (4 votos, promedio: 5,00 de 5)
Cargando...

Información de El niño con el pijama de rayas (2008) Full HD 1080p Latino

Datos de la película

  • Calidad: Full 1080p
  • Audio: Español Latino DTS 5.1 BLURAY - Ingles DTS 5.1 BLURAY
  • Subtitulos: Español Latino PGS - Ingles PGS
  • Resolución: 1920X1080p
  • Formato: MKV
  • Codec: H.264
  • Encoder: CinefiloCool
  • Mediainfo: Clic para Mostrar Datos Ver
  • El Niño Con El Pijama De Rayas (2008) Full HD 1080p Latino-CMHDD.mkv
    Format                      : Matroska
    Format version              : Version 4
    File size                   : 8.22 GiB
    Duration                    : 1 h 34 min
    Overall bit rate            : 12.5 Mb/s
    Movie name                  : The Boy in the Striped Pyjamas (2008) CinemaniaHDD.Net
    Encoded date                : UTC 2021-03-03 05:21:20
    Writing application         : mkvmerge v51.0.0 ('I Wish') 64-bit
    Writing library             : libebml v1.4.0 + libmatroska v1.6.2
    Attachments                 : CINEMANIAHD.png

    Video
    ID                          : 1
    Format                      : AVC
    Format/Info                 : Advanced Video Codec
    Format profile              : High@L4.1
    Format settings             : CABAC / 4 Ref Frames
    Format settings, CABAC      : Yes
    Format settings, Reference  : 4 frames
    Codec ID                    : V_MPEG4/ISO/AVC
    Duration                    : 1 h 34 min
    Bit rate                    : 9 408 kb/s
    Width                       : 1 920 pixels
    Height                      : 1 080 pixels
    Display aspect ratio        : 16:9
    Frame rate mode             : Constant
    Frame rate                  : 23.976 (24000/1001) FPS
    Color space                 : YUV
    Chroma subsampling          : 4:2:0
    Bit depth                   : 8 bits
    Scan type                   : Progressive
    Bits/(Pixel*Frame)          : 0.189
    Stream size                 : 6.21 GiB (76%)
    Title                       : Full HD1080p [CinemaniaHDD]
    Writing library             : x264 core 157 r2935 545de2f
    Encoding settings           : cabac=1 / ref=4 / deblock=1:0:0 / analyse=0x3:0x133 / me=tesa / subme=11 / psy=1 / psy_rd=1.00:0.00 / mixed_ref=1 / me_range=24 / chroma_me=1 / trellis=2 / 8x8dct=1 / cqm=0 / deadzone=21,11 / fast_pskip=0 / chroma_qp_offset=-2 / threads=24 / lookahead_threads=6 / sliced_threads=0 / nr=0 / decimate=1 / interlaced=0 / bluray_compat=0 / constrained_intra=0 / bframes=16 / b_pyramid=2 / b_adapt=2 / b_bias=0 / direct=3 / weightb=1 / open_gop=0 / weightp=2 / keyint=240 / keyint_min=24 / scenecut=40 / intra_refresh=0 / rc_lookahead=60 / rc=crf / mbtree=1 / crf=19.0 / qcomp=0.60 / qpmin=0 / qpmax=69 / qpstep=4 / vbv_maxrate=62500 / vbv_bufsize=78125 / crf_max=0.0 / nal_hrd=none / filler=0 / ip_ratio=1.40 / aq=1:1.00
    Default                     : Yes
    Forced                      : Yes
    Color range                 : Limited
    Color primaries             : BT.709
    Transfer characteristics    : BT.709
    Matrix coefficients         : BT.709

    Audio #1
    ID                          : 2
    Format                      : DTS
    Format/Info                 : Digital Theater Systems
    Codec ID                    : A_DTS
    Duration                    : 1 h 34 min
    Bit rate mode               : Constant
    Bit rate                    : 1 509 kb/s
    Channel(s)                  : 6 channels
    Channel layout              : C L R Ls Rs LFE
    Sampling rate               : 48.0 kHz
    Frame rate                  : 93.750 FPS (512 SPF)
    Bit depth                   : 16 bits
    Compression mode            : Lossy
    Stream size                 : 1 020 MiB (12%)
    Title                       : Español Latino Core DTS [CinemaniaHDD]
    Language                    : Spanish
    Default                     : Yes
    Forced                      : Yes

    Audio #2
    ID                          : 3
    Format                      : DTS
    Format/Info                 : Digital Theater Systems
    Codec ID                    : A_DTS
    Duration                    : 1 h 34 min
    Bit rate mode               : Constant
    Bit rate                    : 1 509 kb/s
    Channel(s)                  : 6 channels
    Channel layout              : C L R Ls Rs LFE
    Sampling rate               : 48.0 kHz
    Frame rate                  : 93.750 FPS (512 SPF)
    Bit depth                   : 24 bits
    Compression mode            : Lossy
    Stream size                 : 1 020 MiB (12%)
    Title                       : Ingles [CinemaniaHDD]
    Language                    : English
    Default                     : No
    Forced                      : No

    Text #1
    ID                          : 4
    Format                      : PGS
    Muxing mode                 : zlib
    Codec ID                    : S_HDMV/PGS
    Codec ID/Info               : Picture based subtitle format used on BDs/HD-DVDs
    Duration                    : 1 h 27 min
    Bit rate                    : 20.7 kb/s
    Count of elements           : 1194
    Stream size                 : 13.0 MiB (0%)
    Title                       : Español-PGS [CinemaniaHDD]
    Language                    : Spanish
    Default                     : No
    Forced                      : No

    Text #2
    ID                          : 5
    Format                      : PGS
    Muxing mode                 : zlib
    Codec ID                    : S_HDMV/PGS
    Codec ID/Info               : Picture based subtitle format used on BDs/HD-DVDs
    Duration                    : 1 h 25 min
    Bit rate                    : 39.3 kb/s
    Count of elements           : 1460
    Stream size                 : 23.9 MiB (0%)
    Title                       : Ingles-PGS [CinemaniaHDD]
    Language                    : English
    Default                     : No
    Forced                      : No

    Text #3
    ID                          : 6
    Format                      : UTF-8
    Codec ID                    : S_TEXT/UTF8
    Codec ID/Info               : UTF-8 Plain Text
    Duration                    : 33 s 332 ms
    Bit rate                    : 36 b/s
    Count of elements           : 4
    Stream size                 : 151 Bytes (0%)
    Title                       : Forzados-SRT [CinemaniaHDD]
    Language                    : Spanish
    Default                     : Yes
    Forced                      : Yes

    Text #4
    ID                          : 7
    Format                      : UTF-8
    Codec ID                    : S_TEXT/UTF8
    Codec ID/Info               : UTF-8 Plain Text
    Duration                    : 1 h 27 min
    Bit rate                    : 40 b/s
    Count of elements           : 736
    Stream size                 : 26.1 KiB (0%)
    Title                       : Español-SRT [CinemaniaHDD]
    Language                    : Spanish
    Default                     : No
    Forced                      : No

    Menu
    00:00:00.000                : :Chapter 1
    00:04:03.243                : :Chapter 2
    00:10:33.550                : :Chapter 3
    00:16:06.716                : :Chapter 4
    00:20:51.333                : :Chapter 5
    00:28:53.815                : :Chapter 6
    00:35:15.905                : :Chapter 7
    00:42:06.816                : :Chapter 8
    00:48:02.630                : :Chapter 9
    00:56:37.936                : :Chapter 10
    01:04:20.440                : :Chapter 11
    01:09:24.619                : :Chapter 12
    01:13:56.265                : :Chapter 13
    01:20:41.628                : :Chapter 14
    01:30:13.408                : :Chapter 15

  • Peso: 8.22 GiB

Sinopsis

Descargar El niño con el pijama de rayas (2008) Full HD 1080p Latino. Berlín, 1942. Bruno tiene ocho años y desconoce el significado de la Solución Final y del Holocausto. No es consciente de las pavorosas crueldades que su país, en plena guerra mundial, está infligiendo a los pueblos de Europa. Todo lo que sabe es que su padre -recién nombrado comandante de un campo de concentración- ha ascendido en el escalafón, y que ha pasado de vivir en una confortable casa de Berlín a una zona aislada. Todo cambia cuando conoce a Shamuel, un niño judío que vive una extraña existencia paralela al otro lado de la alambrada.

RESUBIDO NUEVO RIP VERSION PLACEBO!!!

Ficha técnica

Video trailer de la película

Enlaces de descarga

Rip de Bluray

Descargar El niño con el pijama de rayas (2008) Full HD 1080p Latino




Aportes de DPeliculasHDmega la pass es:dpeliculashdmega.org Aportes de CinemaniaHD la pass es:cinemaniahdd.com

Películas relacionadas

  • Horizon Line (2020) PLACEBO Full HD 1080p Latino

    Horizon Line (2020) PLACEBO Full HD 1080p Latino

    2020
    Horizon Line (2020) PLACEBO Full HD 1080p Latino

    0.0 1h 31m 2020

    Descargar Horizon Line (2020) PLACEBO Full HD 1080p Latino. Una pareja que viaja en un avión pequeño...

    Director: Mikael Marcimain

    Género: FULL 1080p Plateadas

    Actores: Pearl Mackie

  • Sola (2020) HD 1080p Latino

    Sola (2020) HD 1080p Latino

    2020
    Sola (2020) HD 1080p Latino

    0.0 1h 40m 2020

    Descargar Sola (2020) HD 1080p Latino. Una mujer viuda que viaja sola es secuestrada por un asesino a...

    Director: John Hyams

    Género: Drama

    Actores: Shelly Lipkin

  • Sola (2020) REMUX 1080p Latino

    Sola (2020) REMUX 1080p Latino

    2020
    Sola (2020) REMUX 1080p Latino

    5.0 1h 40m 2020

    Descargar Sola (2020) REMUX 1080p Latino. Una mujer viuda que viaja sola es secuestrada por un asesino...

    Director: John Hyams

    Género: Drama

    Actores: Shelly Lipkin

El niño con el pijama de rayas (2008) Full HD 1080p Latino pelicula full hd, El niño con el pijama de rayas (2008) Full HD 1080p Latino mega latino, El niño con el pijama de rayas (2008) Full HD 1080p Latino 4k latino, El niño con el pijama de rayas (2008) Full HD 1080p Latino pelicula completa, El niño con el pijama de rayas (2008) Full HD 1080p Latino descargar gratis, descargar El niño con el pijama de rayas (2008) Full HD 1080p Latino pelicula latino, El niño con el pijama de rayas (2008) Full HD 1080p Latino 1 link mega, El niño con el pijama de rayas (2008) Full HD 1080p Latino 1 link google drive, El niño con el pijama de rayas (2008) Full HD 1080p Latino hd 1080p latino.
Comentarios 1
  • iDeztrukxion - 15 marzo, 2018

    gracias por subirla, una de las mejores películas de judíos!