×

¿Problemas para descargar con Mozilla, EDGE? Deshabilita la opción "Abrir vinculos en una pestaña nueva" tal como lo muestra ésta imagen.

El negocio de las Drogras (2020) Temporada 1 NF WEB-DL 1080p Latino

271 vistas

Información de El negocio de las Drogras (2020) Temporada 1 NF WEB-DL 1080p Latino

Datos de la película

  • Calidad: WEBDL
  • Audio: Español Latino AC3 5.1 Netflix - Ingles AC3 5.1 Netflix
  • Subtitulos: Español Latino SRT- FORZADOS SRT
  • Resolución: 1920x1080
  • Formato: MKV
  • Codec: H.264
  • Encoder: cinemaniahdd
  • Mediainfo: Clic para Mostrar Datos Ver
  • El Negocio de las Drogras T01E01 NF WEB-DL 1080p Latino [CNMNHDD].mkv
    Format                      : Matroska
    Format version              : Version 4
    File size                   : 2.60 GiB
    Duration                    : 45 min 43 s
    Overall bit rate mode       : Variable
    Overall bit rate            : 8 141 kb/s
    Movie name                  : El Negocio de las Drogras T01E01 - CinemaniaHDD.Net
    Encoded date                : UTC 2020-07-16 01:41:21
    Writing application         : mkvmerge v30.1.0 ('Forever And More') 64-bit
    Writing library             : libebml v1.3.6 + libmatroska v1.4.9 / Lavf58.28.101

    Video
    ID                          : 1
    Format                      : AVC
    Format/Info                 : Advanced Video Codec
    Format profile              : Main@L4
    Format settings             : CABAC / 3 Ref Frames
    Format settings, CABAC      : Yes
    Format settings, Reference  : 3 frames
    Codec ID                    : V_MPEG4/ISO/AVC
    Duration                    : 45 min 43 s
    Bit rate mode               : Variable
    Bit rate                    : 7 500 kb/s
    Maximum bit rate            : 11.2 Mb/s
    Width                       : 1 920 pixels
    Height                      : 1 080 pixels
    Display aspect ratio        : 16:9
    Frame rate mode             : Constant
    Frame rate                  : 23.976 (24000/1001) FPS
    Color space                 : YUV
    Chroma subsampling          : 4:2:0
    Bit depth                   : 8 bits
    Scan type                   : Progressive
    Bits/(Pixel*Frame)          : 0.151
    Stream size                 : 2.35 GiB (90%)
    Title                       : CinemaniaHDD.Net
    Writing library             : x264 core 148 r2717 0d2410d
    Encoding settings           : cabac=1 / ref=3 / deblock=1:0:0 / analyse=0x1:0x111 / me=umh / subme=10 / psy=1 / psy_rd=1.00:0.00 / mixed_ref=1 / me_range=24 / chroma_me=1 / trellis=2 / 8x8dct=0 / cqm=0 / deadzone=21,11 / fast_pskip=1 / chroma_qp_offset=-2 / threads=6 / lookahead_threads=1 / sliced_threads=0 / nr=0 / decimate=1 / interlaced=0 / bluray_compat=0 / stitchable=1 / constrained_intra=0 / bframes=2 / b_pyramid=0 / b_adapt=2 / b_bias=0 / direct=3 / weightb=1 / open_gop=0 / weightp=2 / keyint=250 / keyint_min=23 / scenecut=0 / intra_refresh=0 / rc_lookahead=48 / rc=2pass / mbtree=1 / bitrate=7500 / ratetol=1.0 / qcomp=0.50 / qpmin=6 / qpmax=51 / qpstep=4 / cplxblur=20.0 / qblur=0.5 / vbv_maxrate=11250 / vbv_bufsize=15000 / nal_hrd=vbr / filler=0 / ip_ratio=1.40 / aq=1:1.00
    Default                     : Yes
    Forced                      : No

    Audio #1
    ID                          : 2
    Format                      : AC-3
    Format/Info                 : Audio Coding 3
    Commercial name             : Dolby Digital
    Codec ID                    : A_AC3
    Duration                    : 45 min 43 s
    Bit rate mode               : Constant
    Bit rate                    : 384 kb/s
    Channel(s)                  : 6 channels
    Channel layout              : L R C LFE Ls Rs
    Sampling rate               : 48.0 kHz
    Frame rate                  : 31.250 FPS (1536 SPF)
    Compression mode            : Lossy
    Stream size                 : 126 MiB (5%)
    Title                       : Español latino [CinemaniaHDD]
    Language                    : Spanish
    Service kind                : Complete Main
    Default                     : Yes
    Forced                      : No

    Audio #2
    ID                          : 3
    Format                      : AC-3
    Format/Info                 : Audio Coding 3
    Commercial name             : Dolby Digital
    Codec ID                    : A_AC3
    Duration                    : 45 min 43 s
    Bit rate mode               : Constant
    Bit rate                    : 384 kb/s
    Channel(s)                  : 6 channels
    Channel layout              : L R C LFE Ls Rs
    Sampling rate               : 48.0 kHz
    Frame rate                  : 31.250 FPS (1536 SPF)
    Compression mode            : Lossy
    Stream size                 : 126 MiB (5%)
    Title                       : Inglés [CinemaniaHDD]
    Language                    : English
    Service kind                : Complete Main
    Default                     : No
    Forced                      : No

  • Peso: 2.60 GiB C/U APROX --- 12.2 GiB in 6 chapter

Sinopsis

Para entender los orígenes y el verdadero impacto del negocio de las drogas, una exanalista de la CIA investiga la economía detrás de seis sustancias ilícitas.

Ficha técnica

Video trailer de la película

Enlaces de descarga

Rip de Bluray

Descargar El negocio de las Drogras (2020) Temporada 1 NF WEB-DL 1080p Latino




Aportes de DPeliculasHDmega la pass es:dpeliculashdmega.org Aportes de CinemaniaHD la pass es:cinemaniahdd.com
Guardado en : Crimen , Documental , Netflix , Series

Películas relacionadas

descargar El negocio de las Drogras (2020) Temporada 1 NF WEB-DL 1080p Latino WEBDL 1080p gratis, El negocio de las Drogras (2020) Temporada 1 NF WEB-DL 1080p Latino WEBDL mega 1 link, El negocio de las Drogras (2020) Temporada 1 NF WEB-DL 1080p Latino WEBDL serie completa, descargar El negocio de las Drogras (2020) Temporada 1 NF WEB-DL 1080p Latino WEBDL gratis en mega.

El negocio de las Drogras (2020) Temporada 1 NF WEB-DL 1080p Latino pelicula full hd, El negocio de las Drogras (2020) Temporada 1 NF WEB-DL 1080p Latino mega latino, El negocio de las Drogras (2020) Temporada 1 NF WEB-DL 1080p Latino 4k latino, El negocio de las Drogras (2020) Temporada 1 NF WEB-DL 1080p Latino pelicula completa, El negocio de las Drogras (2020) Temporada 1 NF WEB-DL 1080p Latino descargar gratis, descargar El negocio de las Drogras (2020) Temporada 1 NF WEB-DL 1080p Latino pelicula latino, El negocio de las Drogras (2020) Temporada 1 NF WEB-DL 1080p Latino 1 link mega, El negocio de las Drogras (2020) Temporada 1 NF WEB-DL 1080p Latino 1 link google drive, El negocio de las Drogras (2020) Temporada 1 NF WEB-DL 1080p Latino hd 1080p latino.
Comentarios 0