×

¿Problemas para descargar con Mozilla, EDGE? Deshabilita la opción "Abrir vinculos en una pestaña nueva" tal como lo muestra ésta imagen.

James Bond: El Mundo No Basta (1999) 1080p Latino

412 vistas

Información de James Bond: El Mundo No Basta (1999) 1080p Latino

Datos de la película

  • Calidad: 1080p
  • Audio: Español Latino AC3 5.1 BLURAY - Ingles AC3 5.1 BLURAY
  • Subtitulos: Español Latino SRT - Ingles SRT
  • Resolución: 1920x818p
  • Formato: MKV
  • Codec: H.264
  • Encoder: CinefiloCool
  • Mediainfo: Clic para Mostrar Datos Ver
  • El Mundo No Basta (1999) 1080p Latino-CMHDD.mkv
    Format                      : Matroska
    Format version              : Version 4
    File size                   : 4.65 GiB
    Duration                    : 2 h 8 min
    Overall bit rate mode       : Variable
    Overall bit rate            : 5 184 kb/s
    Movie name                  : The World Is Not Enough (1999) CinemaniaHDD.Net
    Encoded date                : UTC 2020-06-13 04:59:19
    Writing application         : mkvmerge v46.0.0 ('No Deeper Escape') 64-bit
    Writing library             : libebml v1.3.10 + libmatroska v1.5.2
    Attachments                 : CINEMANIAHD.png

    Video
    ID                          : 1
    Format                      : AVC
    Format/Info                 : Advanced Video Codec
    Format profile              : High@L4
    Format settings             : CABAC / 3 Ref Frames
    Format settings, CABAC      : Yes
    Format settings, Reference  : 3 frames
    Codec ID                    : V_MPEG4/ISO/AVC
    Duration                    : 2 h 8 min
    Bit rate mode               : Variable
    Bit rate                    : 4 096 kb/s
    Width                       : 1 920 pixels
    Height                      : 818 pixels
    Display aspect ratio        : 2.35:1
    Frame rate mode             : Constant
    Frame rate                  : 23.976 (24000/1001) FPS
    Color space                 : YUV
    Chroma subsampling          : 4:2:0
    Bit depth                   : 8 bits
    Scan type                   : Progressive
    Bits/(Pixel*Frame)          : 0.109
    Stream size                 : 3.67 GiB (79%)
    Title                       : HD1080p [CinemaniaHDD]
    Writing library             : x264 core 142 r2479 dd79a61
    Encoding settings           : cabac=1 / ref=3 / deblock=1:0:0 / analyse=0x3:0x113 / me=hex / subme=7 / psy=1 / psy_rd=1.00:0.00 / mixed_ref=1 / me_range=16 / chroma_me=1 / trellis=1 / 8x8dct=1 / cqm=0 / deadzone=21,11 / fast_pskip=1 / chroma_qp_offset=-2 / threads=6 / lookahead_threads=1 / sliced_threads=0 / nr=0 / decimate=1 / interlaced=0 / bluray_compat=0 / constrained_intra=0 / bframes=3 / b_pyramid=0 / b_adapt=1 / b_bias=0 / direct=1 / weightb=1 / open_gop=0 / weightp=2 / keyint=240 / keyint_min=24 / scenecut=40 / intra_refresh=0 / rc_lookahead=40 / rc=2pass / mbtree=1 / bitrate=4096 / ratetol=1.0 / qcomp=0.60 / qpmin=0 / qpmax=69 / qpstep=4 / cplxblur=20.0 / qblur=0.5 / vbv_maxrate=25000 / vbv_bufsize=25000 / nal_hrd=vbr / filler=0 / ip_ratio=1.40 / aq=1:1.00
    Default                     : Yes
    Forced                      : No

    Audio #1
    ID                          : 2
    Format                      : AC-3
    Format/Info                 : Audio Coding 3
    Commercial name             : Dolby Digital
    Codec ID                    : A_AC3
    Duration                    : 2 h 8 min
    Bit rate mode               : Constant
    Bit rate                    : 448 kb/s
    Channel(s)                  : 6 channels
    Channel layout              : L R C LFE Ls Rs
    Sampling rate               : 48.0 kHz
    Frame rate                  : 31.250 FPS (1536 SPF)
    Compression mode            : Lossy
    Delay relative to video     : 23 ms
    Stream size                 : 411 MiB (9%)
    Title                       : Español Latino [CinemaniaHDD]
    Language                    : Spanish
    Service kind                : Complete Main
    Default                     : Yes
    Forced                      : No

    Audio #2
    ID                          : 3
    Format                      : AC-3
    Format/Info                 : Audio Coding 3
    Commercial name             : Dolby Digital
    Codec ID                    : A_AC3
    Duration                    : 2 h 8 min
    Bit rate mode               : Constant
    Bit rate                    : 640 kb/s
    Channel(s)                  : 6 channels
    Channel layout              : L R C LFE Ls Rs
    Sampling rate               : 48.0 kHz
    Frame rate                  : 31.250 FPS (1536 SPF)
    Compression mode            : Lossy
    Stream size                 : 587 MiB (12%)
    Title                       : Ingles [CinemaniaHDD]
    Language                    : English
    Service kind                : Complete Main
    Default                     : No
    Forced                      : No

    Text #1
    ID                          : 4
    Format                      : UTF-8
    Codec ID                    : S_TEXT/UTF8
    Codec ID/Info               : UTF-8 Plain Text
    Duration                    : 2 h 3 min
    Bit rate                    : 0 b/s
    Count of elements           : 11
    Stream size                 : 230 Bytes (0%)
    Title                       : Forzados-SRT [CinemaniaHDD]
    Language                    : Spanish
    Default                     : Yes
    Forced                      : No

    Text #2
    ID                          : 5
    Format                      : UTF-8
    Codec ID                    : S_TEXT/UTF8
    Codec ID/Info               : UTF-8 Plain Text
    Duration                    : 2 h 3 min
    Bit rate                    : 39 b/s
    Count of elements           : 1092
    Stream size                 : 35.9 KiB (0%)
    Title                       : Español-SRT [CinemaniaHDD]
    Language                    : Spanish
    Default                     : No
    Forced                      : No

    Text #3
    ID                          : 6
    Format                      : UTF-8
    Codec ID                    : S_TEXT/UTF8
    Codec ID/Info               : UTF-8 Plain Text
    Duration                    : 2 h 3 min
    Bit rate                    : 38 b/s
    Count of elements           : 969
    Stream size                 : 34.8 KiB (0%)
    Title                       : Ingles-SRT [CinemaniaHDD]
    Language                    : English
    Default                     : No
    Forced                      : No

    Menu
    00:00:00.000                : en:Logos / Slain in Spain
    00:04:32.063                : en:Exploding Currency
    00:07:27.781                : en:Blazing Boat Chase
    00:14:17.356                : en:Title / Opening Credits
    00:17:07.026                : en:Playing Doctor
    00:20:02.910                : en:Q Bids Farewell
    00:22:54.164                : en:A Terrorist's Message
    00:26:13.989                : en:A Bullet in the Brain
    00:28:33.211                : en:Bond Meets Elektra
    00:33:54.074                : en:Skiing Under Fire
    00:40:18.666                : en:"Stay With Me"
    00:42:22.707                : en:"Shaken Not Stirred"
    00:48:34.286                : en:"The Devil's Breath"
    00:50:35.658                : en:First Sex Then Spying
    00:56:32.848                : en:Dr. Christmas Jones
    00:59:31.276                : en:"I'm Already Dead!"
    01:04:18.354                : en:Sealed in Explosion
    01:08:49.167                : en:"You Used Me!"
    01:12:30.555                : en:Diffusing a Pipe Bomb
    01:18:34.126                : en:A Slap in the Face
    01:20:00.129                : en:"What Do We Do Now?"
    01:21:55.786                : en:"Touch Your Destiny"
    01:25:25.037                : en:"I Feel Nothing!"
    01:27:27.784                : en:What Do You Know?"
    01:29:38.123                : en:Cutting Edge / Caviar
    01:36:26.614                : en:"They Want the Sub!"
    01:42:38.486                : en:"A Power Over Men"
    01:48:46.145                : en:"Call Him Off!"
    01:50:30.916                : en:Diving for the Girl
    01:55:55.949                : en:Stopping a Madman
    02:02:34.347                : en:"Christmas in Turkey"
    02:04:15.907                : en:End Credits

  • Peso: 4.65 GiB

Sinopsis

Descargar James Bond: El Mundo No Basta (1999) 1080p Latino. Tras la muerte del magnate británico del petróleo Sir Robert King en un atentado en el cuartel general del MI6, su hija Elektra hereda su billonaria fortuna en yacimientos petrolíferos en el mar Caspio. El agente 007, sintiéndose culpable de la muerte de su padre, se convierte en su guardaespaldas. Su fortuna atraerá la atención de la prensa internacional y también de su asesino, Renard, un hombre con una bala alojada en el cerebro que le impide sentir dolor físico y cuya única obsesión es la venganza.

Ficha técnica

Video trailer de la película

Enlaces de descarga

Rip de Bluray

Descargar James Bond: El Mundo No Basta (1999) 1080p Latino




Aportes de DPeliculasHDmega la pass es:dpeliculashdmega.org Aportes de CinemaniaHD la pass es:cinemaniahdd.com
Guardado en : Acción , Aventura , HD 1080p , Suspenso

Películas relacionadas

  • DC Liga De Supermascotas (2022) HD 1080p Latino

    DC Liga De Supermascotas (2022) HD 1080p Latino

    2022
    DC Liga De Supermascotas (2022) HD 1080p Latino

    1h 45m 2022

    Descargar DC Liga De Supermascotas (2022) HD 1080p Latino. Krypto el Superperro y Superman son amigos...

    Director: Sam Levine

    Género: Acción

    Actores: Yvette Nicole Brown

  • Invitacion Al Infierno (2022) MA WEB-DL 1080p Latino

    Invitacion Al Infierno (2022) MA WEB-DL 1080p Latino

    2022
    Invitacion Al Infierno (2022) MA WEB-DL 1080p Latino

    1h 45m 2022

    Descargar Invitacion Al Infierno (2022) MA WEB-DL 1080p Latino. Tras la muerte de su madre y quedarse...

    Director: Jessica M. Thompson

    Género: Suspenso

    Actores: Virág Bárány

  • Tremors (1990) REMUX 4K HDR Latino – CMHDD

    Tremors (1990) REMUX 4K HDR Latino – CMHDD

    1990
    Tremors (1990) REMUX 4K HDR Latino – CMHDD

    1h 35m 1990

    En Perfección, un pequeño pueblo al borde del desierto de Nevada, algo parece suceder debajo de la...

    Director: Susan Bierbaum

    Género: Acción

    Actores: Victor Wong

descargar James Bond: El Mundo No Basta (1999) 1080p Latino 1080p 1080p gratis, James Bond: El Mundo No Basta (1999) 1080p Latino 1080p mega 1 link, James Bond: El Mundo No Basta (1999) 1080p Latino 1080p pelicula completa, descargar James Bond: El Mundo No Basta (1999) 1080p Latino 1080p gratis en mega.

James Bond: El Mundo No Basta (1999) 1080p Latino pelicula full hd, James Bond: El Mundo No Basta (1999) 1080p Latino mega latino, James Bond: El Mundo No Basta (1999) 1080p Latino 4k latino, James Bond: El Mundo No Basta (1999) 1080p Latino pelicula completa, James Bond: El Mundo No Basta (1999) 1080p Latino descargar gratis, descargar James Bond: El Mundo No Basta (1999) 1080p Latino pelicula latino, James Bond: El Mundo No Basta (1999) 1080p Latino 1 link mega, James Bond: El Mundo No Basta (1999) 1080p Latino 1 link google drive, James Bond: El Mundo No Basta (1999) 1080p Latino hd 1080p latino.
Comentarios 0