El Misterio De Soho (2021) REMUX 1080p Latino

547 vistas

Información de El Misterio De Soho (2021) REMUX 1080p Latino

Datos de la película

  • Calidad: Full 1080p
  • Audio: Se especifica abajo de la Sinopsis
  • Subtitulos: Español Latino PGS - Ingles PGS
  • Resolución: 1920x1080p
  • Formato: MKV
  • Codec: H.264
  • Encoder: Melkor
  • Mediainfo: Clic para Mostrar Datos Ver
  • El Misterio De Soho (2021) REMUX Latino.mkv
    Format                      : Matroska
    Format version              : Version 4
    File size                   : 26.7 GiB
    Duration                    : 1 h 56 min
    Overall bit rate mode       : Variable
    Overall bit rate            : 32.8 Mb/s
    Movie name                  : Last Night in Soho (2021) CinemaniaHDD.Net
    Encoded date                : UTC 2022-01-13 20:13:34
    Writing application         : mkvmerge v56.1.0 ('My Friend') 64-bit
    Writing library             : libebml v1.4.2 + libmatroska v1.6.4
    Attachments                 : CINEMANIAHD.png

    Video
    ID                          : 1
    Format                      : AVC
    Format/Info                 : Advanced Video Codec
    Format profile              : High@L4.1
    Format settings             : CABAC / 4 Ref Frames
    Format settings, CABAC      : Yes
    Format settings, Reference  : 4 frames
    Codec ID                    : V_MPEG4/ISO/AVC
    Duration                    : 1 h 56 min
    Bit rate mode               : Variable
    Bit rate                    : 28.3 Mb/s
    Maximum bit rate            : 35.0 Mb/s
    Width                       : 1 920 pixels
    Height                      : 1 080 pixels
    Display aspect ratio        : 16:9
    Frame rate mode             : Constant
    Frame rate                  : 23.976 (24000/1001) FPS
    Color space                 : YUV
    Chroma subsampling          : 4:2:0
    Bit depth                   : 8 bits
    Scan type                   : Progressive
    Bits/(Pixel*Frame)          : 0.569
    Stream size                 : 23.0 GiB (86%)
    Title                       : REMUX HD1080p [CinemaniaHDD]
    Language                    : English
    Default                     : Yes
    Forced                      : Yes

    Audio #1
    ID                          : 2
    Format                      : E-AC-3
    Format/Info                 : Enhanced AC-3
    Commercial name             : Dolby Digital Plus
    Format profile              : Blu-ray Disc
    Codec ID                    : A_EAC3
    Duration                    : 1 h 56 min
    Bit rate mode               : Constant
    Bit rate                    : 768 kb/s
    Channel(s)                  : 8 channels
    Channel layout              : L R C LFE Ls Rs Lb Rb
    Sampling rate               : 48.0 kHz
    Frame rate                  : 31.250 FPS (1536 SPF)
    Compression mode            : Lossy
    Stream size                 : 640 MiB (2%)
    Title                       : Español Latino DDP [CinemaniaHDD]
    Language                    : Spanish
    Service kind                : Complete Main
    Default                     : Yes
    Forced                      : Yes

    Audio #2
    ID                          : 3
    Format                      : MLP FBA 16-ch
    Format/Info                 : Meridian Lossless Packing FBA with 16-channel presentation
    Commercial name             : Dolby TrueHD with Dolby Atmos
    Codec ID                    : A_TRUEHD
    Duration                    : 1 h 56 min
    Bit rate mode               : Variable
    Bit rate                    : 2 754 kb/s
    Maximum bit rate            : 5 115 kb/s
    Channel(s)                  : 8 channels
    Channel layout              : L R C LFE Ls Rs Lb Rb
    Sampling rate               : 48.0 kHz
    Frame rate                  : 1 200.000 FPS (40 SPF)
    Compression mode            : Lossless
    Stream size                 : 2.24 GiB (8%)
    Title                       : Ingles THD[CinemaniaHDD]
    Language                    : English
    Default                     : No
    Forced                      : No
    Number of dynamic objects   : 11
    Bed channel count           : 1 channel
    Bed channel configuration   : LFE

    Audio #3
    ID                          : 4
    Format                      : AC-3
    Format/Info                 : Audio Coding 3
    Commercial name             : Dolby Digital
    Codec ID                    : A_AC3
    Duration                    : 1 h 56 min
    Bit rate mode               : Constant
    Bit rate                    : 448 kb/s
    Channel(s)                  : 6 channels
    Channel layout              : L R C LFE Ls Rs
    Sampling rate               : 48.0 kHz
    Frame rate                  : 31.250 FPS (1536 SPF)
    Compression mode            : Lossy
    Stream size                 : 373 MiB (1%)
    Title                       : Español Latino AC3 [CinemaniaHDD]
    Language                    : Spanish
    Service kind                : Complete Main
    Default                     : No
    Forced                      : No

    Audio #4
    ID                          : 5
    Format                      : AC-3
    Format/Info                 : Audio Coding 3
    Commercial name             : Dolby Digital
    Codec ID                    : A_AC3
    Duration                    : 1 h 56 min
    Bit rate mode               : Constant
    Bit rate                    : 448 kb/s
    Channel(s)                  : 6 channels
    Channel layout              : L R C LFE Ls Rs
    Sampling rate               : 48.0 kHz
    Frame rate                  : 31.250 FPS (1536 SPF)
    Compression mode            : Lossy
    Stream size                 : 373 MiB (1%)
    Title                       : Ingles AC3 [CinemaniaHDD]
    Language                    : English
    Service kind                : Complete Main
    Default                     : No
    Forced                      : No

    Text #1
    ID                          : 6
    Format                      : PGS
    Muxing mode                 : zlib
    Codec ID                    : S_HDMV/PGS
    Codec ID/Info               : Picture based subtitle format used on BDs/HD-DVDs
    Duration                    : 1 h 55 min
    Bit rate                    : 34.8 kb/s
    Count of elements           : 3454
    Stream size                 : 28.8 MiB (0%)
    Title                       : Español-PGS [CinemaniaHDD]
    Language                    : Spanish
    Default                     : No
    Forced                      : No

    Text #2
    ID                          : 7
    Format                      : PGS
    Muxing mode                 : zlib
    Codec ID                    : S_HDMV/PGS
    Codec ID/Info               : Picture based subtitle format used on BDs/HD-DVDs
    Duration                    : 1 h 56 min
    Bit rate                    : 44.9 kb/s
    Count of elements           : 4209
    Stream size                 : 37.4 MiB (0%)
    Title                       : Ingles-PGS [CinemaniaHDD]
    Language                    : English
    Default                     : No
    Forced                      : No

    Text #3
    ID                          : 8
    Format                      : UTF-8
    Codec ID                    : S_TEXT/UTF8
    Codec ID/Info               : UTF-8 Plain Text
    Duration                    : 1 h 54 min
    Bit rate                    : 10 b/s
    Count of elements           : 250
    Stream size                 : 8.59 KiB (0%)
    Title                       : Forzados-SRT [CinemaniaHDD]
    Language                    : Spanish
    Default                     : Yes
    Forced                      : Yes

    Text #4
    ID                          : 9
    Format                      : UTF-8
    Codec ID                    : S_TEXT/UTF8
    Codec ID/Info               : UTF-8 Plain Text
    Duration                    : 1 h 54 min
    Bit rate                    : 55 b/s
    Count of elements           : 1726
    Stream size                 : 46.2 KiB (0%)
    Title                       : Español-SRT [CinemaniaHDD]
    Language                    : Spanish
    Default                     : No
    Forced                      : No

    Menu
    00:00:00.000                : Chapter 01
    00:06:08.285                : Chapter 02
    00:13:28.016                : Chapter 03
    00:17:58.411                : Chapter 04
    00:22:24.885                : Chapter 05
    00:26:44.228                : Chapter 06
    00:33:47.651                : Chapter 07
    00:40:02.567                : Chapter 08
    00:44:41.012                : Chapter 09
    00:51:25.082                : Chapter 10
    00:57:22.105                : Chapter 11
    01:03:52.912                : Chapter 12
    01:09:08.144                : Chapter 13
    01:14:40.851                : Chapter 14
    01:20:37.666                : Chapter 15
    01:26:46.076                : Chapter 16
    01:34:01.094                : Chapter 17
    01:41:23.911                : Chapter 18
    01:49:58.801                : Chapter 19
    01:52:18.231                : Chapter 20

  • Peso: 26.7 GiB

Sinopsis

Descargar El Misterio De Soho (2021) REMUX 1080p Latino. Thriller psicológico sobre una joven apasionada por la moda que misteriosamente puede entrar en la década de 1960, donde se encuentra con su ídolo, un atractivo aspirante a cantante. Pero el Londres de los sesenta no es lo que parece, y el tiempo comenzará a desmoronarse con sombrías consecuencias.

Español Latino EAC3 7.1 & AC3 5.1 BD – Ingles TrueHD 7.1 & AC3 5.1 BD

Ficha técnica

Video trailer de la película

Enlaces de descarga

Rip de Bluray

Descargar El Misterio De Soho (2021) REMUX 1080p Latino




Aportes de DPeliculasHDmega la pass es:dpeliculashdmega.org Aportes de CinemaniaHD la pass es:cinemaniahdd.com
Guardado en : Misterio , Remux , Suspenso , Terror

Películas relacionadas

El Misterio De Soho (2021) REMUX 1080p Latino pelicula full hd, El Misterio De Soho (2021) REMUX 1080p Latino mega latino, El Misterio De Soho (2021) REMUX 1080p Latino 4k latino, El Misterio De Soho (2021) REMUX 1080p Latino pelicula completa, El Misterio De Soho (2021) REMUX 1080p Latino descargar gratis, descargar El Misterio De Soho (2021) REMUX 1080p Latino pelicula latino, El Misterio De Soho (2021) REMUX 1080p Latino 1 link mega, El Misterio De Soho (2021) REMUX 1080p Latino 1 link google drive, El Misterio De Soho (2021) REMUX 1080p Latino hd 1080p latino.
Comentarios 0