×

¿Problemas para descargar con Mozilla, EDGE? Deshabilita la opción "Abrir vinculos en una pestaña nueva" tal como lo muestra ésta imagen.

El Ministerio de la Guerra (2024) REMUX 1080p Latino

45 vistas

Información de El Ministerio de la Guerra (2024) REMUX 1080p Latino

Datos de la película

  • Calidad: Full 1080p
  • Audio: Se especifica abajo de la Sinopsis
  • Subtitulos: Español Latino PGS - Ingles PGS
  • Resolución: 1920x1080p
  • Formato: MKV
  • Codec: H.264
  • Encoder: Melkor
  • Mediainfo: Clic para Mostrar Datos Ver
  • El Ministerio de la Guerra (2024) REMUX 1080p Latino.mkv
    Format                      : Matroska
    Format version              : Version 4
    File size                   : 33.7 GiB
    Duration                    : 2 h 0 min
    Overall bit rate mode       : Variable
    Overall bit rate            : 40.1 Mb/s
    Movie name                  : The Ministry of Ungentlemanly Warfare (2024) CinemaniaHDD.Net
    Encoded date                : UTC 2024-06-20 04:45:10
    Writing application         : mkvmerge v56.1.0 ('My Friend') 64-bit
    Writing library             : libebml v1.4.2 + libmatroska v1.6.4
    Attachments                 : CINEMANIAHD.png
    Site                        : CinemaniaHDD.Net
    Uploader                    : Melkor

    Video
    ID                          : 1
    ID in the original source m : 4113 (0x1011)
    Format                      : AVC
    Format/Info                 : Advanced Video Codec
    Format profile              : High@L4.1
    Format settings             : CABAC / 4 Ref Frames
    Format settings, CABAC      : Yes
    Format settings, Reference  : 4 frames
    Codec ID                    : V_MPEG4/ISO/AVC
    Duration                    : 2 h 0 min
    Bit rate mode               : Variable
    Bit rate                    : 34.5 Mb/s
    Maximum bit rate            : 37.0 Mb/s
    Width                       : 1 920 pixels
    Height                      : 1 080 pixels
    Display aspect ratio        : 16:9
    Frame rate mode             : Constant
    Frame rate                  : 23.976 (24000/1001) FPS
    Color space                 : YUV
    Chroma subsampling          : 4:2:0
    Bit depth                   : 8 bits
    Scan type                   : Progressive
    Bits/(Pixel*Frame)          : 0.694
    Stream size                 : 29.0 GiB (86%)
    Title                       : REMUX HD1080p [CinemaniaHDD]
    Default                     : Yes
    Forced                      : No
    Original source medium      : Blu-ray

    Audio #1
    ID                          : 2
    Format                      : AC-3
    Format/Info                 : Audio Coding 3
    Commercial name             : Dolby Digital
    Codec ID                    : A_AC3
    Duration                    : 2 h 0 min
    Bit rate mode               : Constant
    Bit rate                    : 640 kb/s
    Channel(s)                  : 6 channels
    Channel layout              : L R C LFE Ls Rs
    Sampling rate               : 48.0 kHz
    Frame rate                  : 31.250 FPS (1536 SPF)
    Compression mode            : Lossy
    Stream size                 : 551 MiB (2%)
    Title                       : Español Latino [CinemaniaHDD]
    Language                    : Spanish
    Service kind                : Complete Main
    Default                     : Yes
    Forced                      : No

    Audio #2
    ID                          : 3
    ID in the original source m : 4352 (0x1100)
    Format                      : MLP FBA 16-ch
    Format/Info                 : Meridian Lossless Packing FBA with 16-channel presentation
    Commercial name             : Dolby TrueHD with Dolby Atmos
    Codec ID                    : A_TRUEHD
    Duration                    : 2 h 0 min
    Bit rate mode               : Variable
    Bit rate                    : 4 179 kb/s
    Maximum bit rate            : 7 200 kb/s
    Channel(s)                  : 8 channels
    Channel layout              : L R C LFE Ls Rs Lb Rb
    Sampling rate               : 48.0 kHz
    Frame rate                  : 1 200.000 FPS (40 SPF)
    Compression mode            : Lossless
    Stream size                 : 3.51 GiB (10%)
    Title                       : Ingles [CinemaniaHDD]
    Language                    : English
    Default                     : No
    Forced                      : No
    Original source medium      : Blu-ray
    Number of dynamic objects   : 11
    Bed channel count           : 1 channel
    Bed channel configuration   : LFE

    Audio #3
    ID                          : 4
    ID in the original source m : 4352 (0x1100)
    Format                      : AC-3
    Format/Info                 : Audio Coding 3
    Commercial name             : Dolby Digital
    Codec ID                    : A_AC3
    Duration                    : 2 h 0 min
    Bit rate mode               : Constant
    Bit rate                    : 640 kb/s
    Channel(s)                  : 6 channels
    Channel layout              : L R C LFE Ls Rs
    Sampling rate               : 48.0 kHz
    Frame rate                  : 31.250 FPS (1536 SPF)
    Compression mode            : Lossy
    Stream size                 : 551 MiB (2%)
    Title                       : Ingles AC3 [CinemaniaHDD]
    Language                    : English
    Service kind                : Complete Main
    Default                     : No
    Forced                      : No
    Original source medium      : Blu-ray

    Text #1
    ID                          : 5
    ID in the original source m : 4609 (0x1201)
    Format                      : PGS
    Muxing mode                 : zlib
    Codec ID                    : S_HDMV/PGS
    Codec ID/Info               : Picture based subtitle format used on BDs/HD-DVDs
    Duration                    : 1 h 52 min
    Bit rate                    : 36.4 kb/s
    Count of elements           : 2724
    Stream size                 : 29.4 MiB (0%)
    Title                       : Español-PGS [CinemaniaHDD]
    Language                    : Spanish
    Default                     : No
    Forced                      : No
    Original source medium      : Blu-ray

    Text #2
    ID                          : 6
    ID in the original source m : 4608 (0x1200)
    Format                      : PGS
    Muxing mode                 : zlib
    Codec ID                    : S_HDMV/PGS
    Codec ID/Info               : Picture based subtitle format used on BDs/HD-DVDs
    Duration                    : 1 h 59 min
    Bit rate                    : 51.1 kb/s
    Count of elements           : 3744
    Stream size                 : 43.6 MiB (0%)
    Title                       : Ingles-PGS [CinemaniaHDD]
    Language                    : English
    Default                     : No
    Forced                      : No
    Original source medium      : Blu-ray

    Text #3
    ID                          : 7
    Format                      : UTF-8
    Codec ID                    : S_TEXT/UTF8
    Codec ID/Info               : UTF-8 Plain Text
    Duration                    : 1 h 52 min
    Bit rate                    : 4 b/s
    Count of elements           : 123
    Stream size                 : 3.98 KiB (0%)
    Title                       : Forzados-SRT [CinemaniaHDD]
    Language                    : Spanish
    Default                     : Yes
    Forced                      : No

    Text #4
    ID                          : 8
    Format                      : UTF-8
    Codec ID                    : S_TEXT/UTF8
    Codec ID/Info               : UTF-8 Plain Text
    Duration                    : 1 h 53 min
    Bit rate                    : 63 b/s
    Count of elements           : 1590
    Stream size                 : 52.6 KiB (0%)
    Title                       : Español-SRT [CinemaniaHDD]
    Language                    : Spanish
    Default                     : No
    Forced                      : No

    Menu
    00:00:00.000                : Chapter 01
    00:07:21.357                : Chapter 02
    00:17:44.438                : Chapter 03
    00:24:01.231                : Chapter 04
    00:34:43.164                : Chapter 05
    00:41:41.373                : Chapter 06
    00:49:37.307                : Chapter 07
    00:56:07.739                : Chapter 08
    01:04:16.894                : Chapter 09
    01:08:11.670                : Chapter 10
    01:12:43.317                : Chapter 11
    01:20:31.785                : Chapter 12
    01:26:37.692                : Chapter 13
    01:33:49.624                : Chapter 14
    01:40:57.551                : Chapter 15
    01:46:29.257                : Chapter 16

  • Peso: 33.7 GiB

Sinopsis

Descargar El Ministerio de la Guerra (2024) REMUX 1080p Latino. El ejército británico recluta a un pequeño grupo de soldados de élite para atacar a los nazis detrás de las líneas enemigas durante la Segunda Guerra Mundial.

Español Latino AC3 5.1 – Ingles TrueHD 7.1 & Core AC3 5.1 BD

Ficha técnica

  • Titulo original: The Ministry of Ungentlemanly Warfare
  • Fecha de lanzamiento: 18-04-2024 (United Kingdom, United States of America)
  • Director: Guy Ritchie
  • Género: Acción, Bélica, Drama, Remux

Video trailer de la película

Enlaces de descarga

Rip de Bluray

Descargar El Ministerio de la Guerra (2024) REMUX 1080p Latino




Aportes de DPeliculasHDmega la pass es:dpeliculashdmega.org Aportes de CinemaniaHD la pass es:cinemaniahdd.com Aportes recientes:cinemaniahdd.net
Guardado en : Acción , Bélica , Drama , Remux

Películas relacionadas

descargar El Ministerio de la Guerra (2024) REMUX 1080p Latino Full 1080p 1080p gratis, El Ministerio de la Guerra (2024) REMUX 1080p Latino Full 1080p mega 1 link, El Ministerio de la Guerra (2024) REMUX 1080p Latino Full 1080p pelicula completa, descargar El Ministerio de la Guerra (2024) REMUX 1080p Latino Full 1080p gratis en mega.

El Ministerio de la Guerra (2024) REMUX 1080p Latino pelicula full hd, El Ministerio de la Guerra (2024) REMUX 1080p Latino mega latino, El Ministerio de la Guerra (2024) REMUX 1080p Latino 4k latino, El Ministerio de la Guerra (2024) REMUX 1080p Latino pelicula completa, El Ministerio de la Guerra (2024) REMUX 1080p Latino descargar gratis, descargar El Ministerio de la Guerra (2024) REMUX 1080p Latino pelicula latino, El Ministerio de la Guerra (2024) REMUX 1080p Latino 1 link mega, El Ministerio de la Guerra (2024) REMUX 1080p Latino 1 link google drive, El Ministerio de la Guerra (2024) REMUX 1080p Latino hd 1080p latino.
Comentarios 0