×

¿Problemas para descargar con Mozilla, EDGE? Deshabilita la opción "Abrir vinculos en una pestaña nueva" tal como lo muestra ésta imagen.

El Ministerio de la Guerra (2024) PLACEBO Full HD 1080p Latino

50 vistas

Información de El Ministerio de la Guerra (2024) PLACEBO Full HD 1080p Latino

Datos de la película

  • Calidad: Full 1080p
  • Audio: Español Latino AC3 5.1 BLURAY - Ingles DTS 5.1 BLURAY
  • Subtitulos: Español Latino PGS - Ingles PGS
  • Resolución: 1920x1080p
  • Formato: MKV
  • Codec: H.264
  • Encoder: Melkor
  • Mediainfo: Clic para Mostrar Datos Ver
  • El Ministerio de la Guerra (2024) PLACEBO 1080p Latino.mkv
    Format                      : Matroska
    Format version              : Version 4
    File size                   : 5.27 GiB
    Duration                    : 2 h 0 min
    Overall bit rate            : 6 263 kb/s
    Movie name                  : The Ministry of Ungentlemanly Warfare (2024) CinemaniaHDD.Net
    Encoded date                : UTC 2024-06-20 05:12:14
    Writing application         : mkvmerge v56.1.0 ('My Friend') 64-bit
    Writing library             : libebml v1.4.2 + libmatroska v1.6.4
    Attachments                 : CINEMANIAHD.png
    Site                        : CinemaniaHDD.Net
    Uploader                    : Melkor

    Video
    ID                          : 1
    Format                      : AVC
    Format/Info                 : Advanced Video Codec
    Format profile              : High@L4.1
    Format settings             : CABAC / 4 Ref Frames
    Format settings, CABAC      : Yes
    Format settings, Reference  : 4 frames
    Codec ID                    : V_MPEG4/ISO/AVC
    Duration                    : 2 h 0 min
    Bit rate                    : 4 070 kb/s
    Width                       : 1 920 pixels
    Height                      : 1 080 pixels
    Display aspect ratio        : 16:9
    Frame rate mode             : Constant
    Frame rate                  : 23.976 (24000/1001) FPS
    Color space                 : YUV
    Chroma subsampling          : 4:2:0
    Bit depth                   : 8 bits
    Scan type                   : Progressive
    Bits/(Pixel*Frame)          : 0.082
    Stream size                 : 3.42 GiB (65%)
    Title                       : Full HD1080p [CinemaniaHDD
    Writing library             : x264 core 163 r3059 b684ebe0
    Encoding settings           : cabac=1 / ref=4 / deblock=1:0:0 / analyse=0x3:0x133 / me=tesa / subme=11 / psy=1 / psy_rd=1.00:0.00 / mixed_ref=1 / me_range=24 / chroma_me=1 / trellis=2 / 8x8dct=1 / cqm=0 / deadzone=21,11 / fast_pskip=0 / chroma_qp_offset=-2 / threads=24 / lookahead_threads=6 / sliced_threads=0 / nr=0 / decimate=1 / interlaced=0 / bluray_compat=0 / constrained_intra=0 / bframes=16 / b_pyramid=2 / b_adapt=2 / b_bias=0 / direct=3 / weightb=1 / open_gop=0 / weightp=2 / keyint=240 / keyint_min=24 / scenecut=40 / intra_refresh=0 / rc_lookahead=60 / rc=crf / mbtree=1 / crf=19.0 / qcomp=0.60 / qpmin=0 / qpmax=69 / qpstep=4 / vbv_maxrate=62500 / vbv_bufsize=78125 / crf_max=0.0 / nal_hrd=none / filler=0 / ip_ratio=1.40 / aq=1:1.00
    Default                     : Yes
    Forced                      : Yes
    Color range                 : Limited
    Color primaries             : BT.709
    Transfer characteristics    : BT.709
    Matrix coefficients         : BT.709

    Audio #1
    ID                          : 2
    Format                      : AC-3
    Format/Info                 : Audio Coding 3
    Commercial name             : Dolby Digital
    Codec ID                    : A_AC3
    Duration                    : 2 h 0 min
    Bit rate mode               : Constant
    Bit rate                    : 640 kb/s
    Channel(s)                  : 6 channels
    Channel layout              : L R C LFE Ls Rs
    Sampling rate               : 48.0 kHz
    Frame rate                  : 31.250 FPS (1536 SPF)
    Compression mode            : Lossy
    Stream size                 : 551 MiB (10%)
    Title                       : Español Latino [CinemaniaHDD]
    Language                    : Spanish
    Service kind                : Complete Main
    Default                     : Yes
    Forced                      : No

    Audio #2
    ID                          : 3
    Format                      : DTS
    Format/Info                 : Digital Theater Systems
    Codec ID                    : A_DTS
    Duration                    : 2 h 0 min
    Bit rate mode               : Constant
    Bit rate                    : 1 509 kb/s
    Channel(s)                  : 6 channels
    Channel layout              : C L R Ls Rs LFE
    Sampling rate               : 48.0 kHz
    Frame rate                  : 93.750 FPS (512 SPF)
    Bit depth                   : 16 bits
    Compression mode            : Lossy
    Stream size                 : 1.27 GiB (24%)
    Title                       : Ingles [CinemaniaHDD]
    Language                    : English
    Default                     : No
    Forced                      : No

    Text #1
    ID                          : 4
    ID in the original source m : 4609 (0x1201)
    Format                      : PGS
    Muxing mode                 : zlib
    Codec ID                    : S_HDMV/PGS
    Codec ID/Info               : Picture based subtitle format used on BDs/HD-DVDs
    Duration                    : 1 h 52 min
    Bit rate                    : 36.4 kb/s
    Count of elements           : 2724
    Stream size                 : 29.4 MiB (1%)
    Title                       : Español-PGS [CinemaniaHDD]
    Language                    : Spanish
    Default                     : No
    Forced                      : No
    Original source medium      : Blu-ray

    Text #2
    ID                          : 5
    ID in the original source m : 4608 (0x1200)
    Format                      : PGS
    Muxing mode                 : zlib
    Codec ID                    : S_HDMV/PGS
    Codec ID/Info               : Picture based subtitle format used on BDs/HD-DVDs
    Duration                    : 1 h 59 min
    Bit rate                    : 51.1 kb/s
    Count of elements           : 3744
    Stream size                 : 43.6 MiB (1%)
    Title                       : Ingles-PGS [CinemaniaHDD]
    Language                    : English
    Default                     : No
    Forced                      : No
    Original source medium      : Blu-ray

    Text #3
    ID                          : 6
    Format                      : UTF-8
    Codec ID                    : S_TEXT/UTF8
    Codec ID/Info               : UTF-8 Plain Text
    Duration                    : 1 h 52 min
    Bit rate                    : 4 b/s
    Count of elements           : 123
    Stream size                 : 3.98 KiB (0%)
    Title                       : Forzados-SRT [CinemaniaHDD]
    Language                    : Spanish
    Default                     : Yes
    Forced                      : No

    Text #4
    ID                          : 7
    Format                      : UTF-8
    Codec ID                    : S_TEXT/UTF8
    Codec ID/Info               : UTF-8 Plain Text
    Duration                    : 1 h 53 min
    Bit rate                    : 63 b/s
    Count of elements           : 1590
    Stream size                 : 52.6 KiB (0%)
    Title                       : Español-SRT [CinemaniaHDD]
    Language                    : Spanish
    Default                     : No
    Forced                      : No

    Menu
    00:00:00.000                : Chapter 01
    00:07:21.357                : Chapter 02
    00:17:44.438                : Chapter 03
    00:24:01.231                : Chapter 04
    00:34:43.164                : Chapter 05
    00:41:41.373                : Chapter 06
    00:49:37.307                : Chapter 07
    00:56:07.739                : Chapter 08
    01:04:16.894                : Chapter 09
    01:08:11.670                : Chapter 10
    01:12:43.317                : Chapter 11
    01:20:31.785                : Chapter 12
    01:26:37.692                : Chapter 13
    01:33:49.624                : Chapter 14
    01:40:57.551                : Chapter 15
    01:46:29.257                : Chapter 16

  • Peso: 5.27 GiB

Sinopsis

Descargar El Ministerio de la Guerra (2024) PLACEBO Full HD 1080p Latino. El ejército británico recluta a un pequeño grupo de soldados de élite para atacar a los nazis detrás de las líneas enemigas durante la Segunda Guerra Mundial.

Ficha técnica

Video trailer de la película

Enlaces de descarga

Rip de Bluray

Descargar El Ministerio de la Guerra (2024) PLACEBO Full HD 1080p Latino




Aportes de DPeliculasHDmega la pass es:dpeliculashdmega.org Aportes de CinemaniaHD la pass es:cinemaniahdd.com Aportes recientes:cinemaniahdd.net

Películas relacionadas

  • Spider-Man 2 (2004) REMUX 4K HDR Latino – CMHDD

    Spider-Man 2 (2004) REMUX 4K HDR Latino – CMHDD

    2004
    Spider-Man 2 (2004) REMUX 4K HDR Latino – CMHDD

    2h 7m 2004

    Han pasado dos años desde que el tranquilo Peter Parker dejó a Mary Jane Watson, su gran amor, y decidió...

    Director: Trudy Ramirez

    Género: Acción

    Actores: Zachry Rogers

  • Un Heroe Anonimo (2024) 1080p Latino-CMHDD

    Un Heroe Anonimo (2024) 1080p Latino-CMHDD

    2024
    Un Heroe Anonimo (2024) 1080p Latino-CMHDD

    1h 53m 2024

    Descargar Un Heroe Anonimo (2024) 1080p Latino-CMHDD. Basada en una extraordinaria historia real, la...

    Director: Richard Ramsey

    Género: Drama

    Actores: Vin Morreale Jr

  • Un Heroe Anonimo (2024) Full HD 1080p Latino-CMHDD

    Un Heroe Anonimo (2024) Full HD 1080p Latino-CMHDD

    2024
    Un Heroe Anonimo (2024) Full HD 1080p Latino-CMHDD

    1h 53m 2024

    Descargar Un Heroe Anonimo (2024) Full HD 1080p Latino-CMHDD Basada en una extraordinaria historia real,...

    Director: Richard Ramsey

    Género: Drama

    Actores: Vin Morreale Jr

  • Un Heroe Anonimo (2024) REMUX 1080p Latino-CMHDD

    Un Heroe Anonimo (2024) REMUX 1080p Latino-CMHDD

    2024
    Un Heroe Anonimo (2024) REMUX 1080p Latino-CMHDD

    1h 53m 2024

    Descargar Un Heroe Anonimo (2024) REMUX 1080p Latino-CMHDD. Basada en una extraordinaria historia real,...

    Director: Richard Ramsey

    Género: Drama

    Actores: Vin Morreale Jr

  • Profesión peligro (2024) 1080p Latino-CMHDD

    Profesión peligro (2024) 1080p Latino-CMHDD

    2024
    Profesión peligro (2024) 1080p Latino-CMHDD

    2h 6m 2024

    Descargar Profesión peligro (2024) 1080p Latino-CMHDD. Es un doble de acción, y al igual que todos...

    Director: Paul Barry

    Género: Acción

    Actores: Zara Michales

descargar El Ministerio de la Guerra (2024) PLACEBO Full HD 1080p Latino Full 1080p 1080p gratis, El Ministerio de la Guerra (2024) PLACEBO Full HD 1080p Latino Full 1080p mega 1 link, El Ministerio de la Guerra (2024) PLACEBO Full HD 1080p Latino Full 1080p pelicula completa, descargar El Ministerio de la Guerra (2024) PLACEBO Full HD 1080p Latino Full 1080p gratis en mega.

El Ministerio de la Guerra (2024) PLACEBO Full HD 1080p Latino pelicula full hd, El Ministerio de la Guerra (2024) PLACEBO Full HD 1080p Latino mega latino, El Ministerio de la Guerra (2024) PLACEBO Full HD 1080p Latino 4k latino, El Ministerio de la Guerra (2024) PLACEBO Full HD 1080p Latino pelicula completa, El Ministerio de la Guerra (2024) PLACEBO Full HD 1080p Latino descargar gratis, descargar El Ministerio de la Guerra (2024) PLACEBO Full HD 1080p Latino pelicula latino, El Ministerio de la Guerra (2024) PLACEBO Full HD 1080p Latino 1 link mega, El Ministerio de la Guerra (2024) PLACEBO Full HD 1080p Latino 1 link google drive, El Ministerio de la Guerra (2024) PLACEBO Full HD 1080p Latino hd 1080p latino.
Comentarios 0