×

¿Problemas para descargar con Mozilla, EDGE? Deshabilita la opción "Abrir vinculos en una pestaña nueva" tal como lo muestra ésta imagen.

El milagro del padre Stu (2022) PLACEBO Full HD 1080p Latino

593 vistas

Información de El milagro del padre Stu (2022) PLACEBO Full HD 1080p Latino

Datos de la película

  • Calidad: Full 1080p
  • Audio: Español Latino AC3 5.1 BLURAY - Ingles DTS 5.1 BLURAY
  • Subtitulos: Español Latino PGS - Ingles PGS
  • Resolución: 1920x1080p
  • Formato: MKV
  • Codec: H.264
  • Encoder: Melkor
  • Mediainfo: Clic para Mostrar Datos Ver
  • El Milagro Del Padre Stu (2022) PLACEBO 1080p Latino.mkv
    Format                      : Matroska
    Format version              : Version 4
    File size                   : 4.32 GiB
    Duration                    : 2 h 4 min
    Overall bit rate            : 4 967 kb/s
    Movie name                  : Father Stu (2022) CinemaniaHDD.Net
    Encoded date                : UTC 2022-06-08 21:39:18
    Writing application         : mkvmerge v56.1.0 ('My Friend') 64-bit
    Writing library             : libebml v1.4.2 + libmatroska v1.6.4
    Attachments                 : CINEMANIAHD.png

    Video
    ID                          : 1
    Format                      : AVC
    Format/Info                 : Advanced Video Codec
    Format profile              : High@L4.1
    Format settings             : CABAC / 4 Ref Frames
    Format settings, CABAC      : Yes
    Format settings, Reference  : 4 frames
    Codec ID                    : V_MPEG4/ISO/AVC
    Duration                    : 2 h 4 min
    Bit rate                    : 2 780 kb/s
    Width                       : 1 920 pixels
    Height                      : 1 080 pixels
    Display aspect ratio        : 16:9
    Frame rate mode             : Constant
    Frame rate                  : 23.976 (24000/1001) FPS
    Color space                 : YUV
    Chroma subsampling          : 4:2:0
    Bit depth                   : 8 bits
    Scan type                   : Progressive
    Bits/(Pixel*Frame)          : 0.056
    Stream size                 : 2.42 GiB (56%)
    Title                       : Full HD1080p [CinemaniaHDD]
    Writing library             : x264 core 163 r3059 b684ebe0
    Encoding settings           : cabac=1 / ref=4 / deblock=1:-1:-1 / analyse=0x3:0x133 / me=tesa / subme=11 / psy=1 / psy_rd=1.00:0.15 / mixed_ref=1 / me_range=24 / chroma_me=1 / trellis=2 / 8x8dct=1 / cqm=0 / deadzone=21,11 / fast_pskip=0 / chroma_qp_offset=-3 / threads=24 / lookahead_threads=6 / sliced_threads=0 / nr=0 / decimate=1 / interlaced=0 / bluray_compat=0 / constrained_intra=0 / bframes=16 / b_pyramid=2 / b_adapt=2 / b_bias=0 / direct=3 / weightb=1 / open_gop=0 / weightp=2 / keyint=240 / keyint_min=24 / scenecut=40 / intra_refresh=0 / rc_lookahead=60 / rc=crf / mbtree=1 / crf=19.0 / qcomp=0.60 / qpmin=0 / qpmax=69 / qpstep=4 / vbv_maxrate=62500 / vbv_bufsize=78125 / crf_max=0.0 / nal_hrd=none / filler=0 / ip_ratio=1.40 / aq=1:1.00
    Default                     : Yes
    Forced                      : Yes
    Color range                 : Limited
    Color primaries             : BT.709
    Transfer characteristics    : BT.709
    Matrix coefficients         : BT.709

    Audio #1
    ID                          : 2
    Format                      : AC-3
    Format/Info                 : Audio Coding 3
    Commercial name             : Dolby Digital
    Codec ID                    : A_AC3
    Duration                    : 2 h 4 min
    Bit rate mode               : Constant
    Bit rate                    : 640 kb/s
    Channel(s)                  : 6 channels
    Channel layout              : L R C LFE Ls Rs
    Sampling rate               : 48.0 kHz
    Frame rate                  : 31.250 FPS (1536 SPF)
    Compression mode            : Lossy
    Stream size                 : 571 MiB (13%)
    Title                       : Español Latino [CinemaniaHDD]
    Language                    : Spanish
    Service kind                : Complete Main
    Default                     : Yes
    Forced                      : Yes

    Audio #2
    ID                          : 3
    Format                      : DTS
    Format/Info                 : Digital Theater Systems
    Codec ID                    : A_DTS
    Duration                    : 2 h 4 min
    Bit rate mode               : Constant
    Bit rate                    : 1 509 kb/s
    Channel(s)                  : 6 channels
    Channel layout              : C L R Ls Rs LFE
    Sampling rate               : 48.0 kHz
    Frame rate                  : 93.750 FPS (512 SPF)
    Bit depth                   : 24 bits
    Compression mode            : Lossy
    Stream size                 : 1.31 GiB (30%)
    Title                       : Ingles [CinemaniaHDD]
    Language                    : English
    Default                     : No
    Forced                      : No

    Text #1
    ID                          : 4
    Format                      : PGS
    Muxing mode                 : zlib
    Codec ID                    : S_HDMV/PGS
    Codec ID/Info               : Picture based subtitle format used on BDs/HD-DVDs
    Duration                    : 2 h 3 min
    Bit rate                    : 32.2 kb/s
    Count of elements           : 3234
    Stream size                 : 28.4 MiB (1%)
    Title                       : Español-PGS [CinemaniaHDD]
    Language                    : Spanish
    Default                     : No
    Forced                      : No

    Text #2
    ID                          : 5
    Format                      : PGS
    Muxing mode                 : zlib
    Codec ID                    : S_HDMV/PGS
    Codec ID/Info               : Picture based subtitle format used on BDs/HD-DVDs
    Duration                    : 2 h 0 min
    Bit rate                    : 36.9 kb/s
    Count of elements           : 3110
    Stream size                 : 31.9 MiB (1%)
    Title                       : Ingles-PGS [CinemaniaHDD]
    Language                    : English
    Default                     : No
    Forced                      : No

    Text #3
    ID                          : 6
    Format                      : UTF-8
    Codec ID                    : S_TEXT/UTF8
    Codec ID/Info               : UTF-8 Plain Text
    Duration                    : 1 h 54 min
    Bit rate                    : 0 b/s
    Count of elements           : 13
    Stream size                 : 649 Bytes (0%)
    Title                       : Forzados-SRT [CinemaniaHDD]
    Language                    : Spanish
    Default                     : Yes
    Forced                      : Yes

    Text #4
    ID                          : 7
    Format                      : UTF-8
    Codec ID                    : S_TEXT/UTF8
    Codec ID/Info               : UTF-8 Plain Text
    Duration                    : 2 h 1 min
    Bit rate                    : 71 b/s
    Count of elements           : 1633
    Stream size                 : 63.3 KiB (0%)
    Title                       : Español-SRT [CinemaniaHDD]
    Language                    : Spanish
    Default                     : No
    Forced                      : No

    Menu
    00:00:00.000                : Chapter 01
    00:09:14.637                : Chapter 02
    00:17:31.676                : Chapter 03
    00:20:25.558                : Chapter 04
    00:26:13.030                : Chapter 05
    00:34:10.840                : Chapter 06
    00:49:55.492                : Chapter 07
    01:01:30.812                : Chapter 08
    01:06:45.752                : Chapter 09
    01:11:32.246                : Chapter 10
    01:15:28.649                : Chapter 11
    01:19:47.950                : Chapter 12
    01:24:26.436                : Chapter 13
    01:31:17.263                : Chapter 14
    01:39:43.019                : Chapter 15
    01:50:27.871                : Chapter 16
    01:59:35.168                : Chapter 17

  • Peso: 4.32 GiB

Sinopsis

Descargar El milagro del padre Stu (2022) PLACEBO Full HD 1080p Latino. La historia real de un boxeador convertido en sacerdote. Cuando una lesión pone fin a su carrera como boxeador amateur, Stuart Long se muda a Los Ángeles en busca de dinero y fama. Mientras se las arregla como empleado de un supermercado, conoce a Carmen, una maestra de escuela dominical que parece inmune a su encanto de chico malo. Decidido a ganársela, el agnóstico de toda la vida comienza a ir a la iglesia para impresionarla. Sin embargo, un accidente de motocicleta lo deja preguntándose si puede usar su segunda oportunidad para ayudar a otros, lo que lo lleva a darse cuenta de que está destinado a ser un sacerdote católico.

Ficha técnica

Video trailer de la película

Enlaces de descarga

Rip de Bluray

Descargar El milagro del padre Stu (2022) PLACEBO Full HD 1080p Latino




Aportes de DPeliculasHDmega la pass es:dpeliculashdmega.org Aportes de CinemaniaHD la pass es:cinemaniahdd.com

Películas relacionadas

El milagro del padre Stu (2022) PLACEBO Full HD 1080p Latino pelicula full hd, El milagro del padre Stu (2022) PLACEBO Full HD 1080p Latino mega latino, El milagro del padre Stu (2022) PLACEBO Full HD 1080p Latino 4k latino, El milagro del padre Stu (2022) PLACEBO Full HD 1080p Latino pelicula completa, El milagro del padre Stu (2022) PLACEBO Full HD 1080p Latino descargar gratis, descargar El milagro del padre Stu (2022) PLACEBO Full HD 1080p Latino pelicula latino, El milagro del padre Stu (2022) PLACEBO Full HD 1080p Latino 1 link mega, El milagro del padre Stu (2022) PLACEBO Full HD 1080p Latino 1 link google drive, El milagro del padre Stu (2022) PLACEBO Full HD 1080p Latino hd 1080p latino.
Comentarios 0