×

¿Problemas para descargar con Mozilla, EDGE? Deshabilita la opción "Abrir vinculos en una pestaña nueva" tal como lo muestra ésta imagen.

El Milagro Del Padre Stu (2022) HD 1080p Latino

750 vistas

Información de El Milagro Del Padre Stu (2022) HD 1080p Latino

Datos de la película

  • Calidad: 1080p
  • Audio: Español Latino AC3 2.0 WEB-DL - Ingles AC3 5.1 BLURAY
  • Subtitulos: Español Latino SRT- FORZADOS SRT
  • Resolución: 1920x804p
  • Formato: MKV
  • Codec: H.264
  • Encoder: Melkor
  • Mediainfo: Clic para Mostrar Datos Ver
  • El Milagro Del Padre Stu (2022) HD 1080p Latino.mkv
    Format                      : Matroska
    Format version              : Version 4
    File size                   : 3.65 GiB
    Duration                    : 2 h 4 min
    Overall bit rate            : 4 189 kb/s
    Movie name                  : Father Stu (2022) CinemaniaHDD.Net
    Encoded date                : UTC 2022-06-05 05:46:33
    Writing application         : mkvmerge v56.1.0 ('My Friend') 64-bit
    Writing library             : libebml v1.4.2 + libmatroska v1.6.4
    Attachments                 : CINEMANIAHD.png

    Video
    ID                          : 1
    Format                      : AVC
    Format/Info                 : Advanced Video Codec
    Format profile              : High@L4.1
    Format settings             : CABAC / 5 Ref Frames
    Format settings, CABAC      : Yes
    Format settings, Reference  : 5 frames
    Codec ID                    : V_MPEG4/ISO/AVC
    Duration                    : 2 h 4 min
    Bit rate                    : 3 500 kb/s
    Width                       : 1 920 pixels
    Height                      : 804 pixels
    Display aspect ratio        : 2.40:1
    Frame rate mode             : Constant
    Frame rate                  : 23.976 (24000/1001) FPS
    Color space                 : YUV
    Chroma subsampling          : 4:2:0
    Bit depth                   : 8 bits
    Scan type                   : Progressive
    Bits/(Pixel*Frame)          : 0.095
    Stream size                 : 3.03 GiB (83%)
    Title                       : HD1080p [CinemaniaHDD]
    Writing library             : x264 core 163 r3059 b684ebe0
    Encoding settings           : cabac=1 / ref=5 / deblock=1:-1:-1 / analyse=0x3:0x133 / me=umh / subme=9 / psy=1 / psy_rd=1.00:0.15 / mixed_ref=1 / me_range=16 / chroma_me=1 / trellis=2 / 8x8dct=1 / cqm=0 / deadzone=21,11 / fast_pskip=1 / chroma_qp_offset=-3 / threads=24 / lookahead_threads=2 / sliced_threads=0 / nr=0 / decimate=1 / interlaced=0 / bluray_compat=0 / constrained_intra=0 / bframes=3 / b_pyramid=2 / b_adapt=2 / b_bias=0 / direct=3 / weightb=1 / open_gop=0 / weightp=2 / keyint=240 / keyint_min=24 / scenecut=40 / intra_refresh=0 / rc_lookahead=60 / rc=abr / mbtree=1 / bitrate=3500 / ratetol=1.0 / qcomp=0.60 / qpmin=0 / qpmax=69 / qpstep=4 / vbv_maxrate=62500 / vbv_bufsize=78125 / nal_hrd=none / filler=0 / ip_ratio=1.40 / aq=1:1.00
    Default                     : Yes
    Forced                      : Yes
    Color range                 : Limited
    Color primaries             : BT.709
    Transfer characteristics    : BT.709
    Matrix coefficients         : BT.709

    Audio #1
    ID                          : 2
    Format                      : AC-3
    Format/Info                 : Audio Coding 3
    Commercial name             : Dolby Digital
    Codec ID                    : A_AC3
    Duration                    : 2 h 4 min
    Bit rate mode               : Constant
    Bit rate                    : 256 kb/s
    Channel(s)                  : 2 channels
    Channel layout              : L R
    Sampling rate               : 48.0 kHz
    Frame rate                  : 31.250 FPS (1536 SPF)
    Compression mode            : Lossy
    Delay relative to video     : -5 ms
    Stream size                 : 228 MiB (6%)
    Title                       : Español Latino [CinemaniaHDD]
    Language                    : Spanish
    Service kind                : Complete Main
    Default                     : Yes
    Forced                      : Yes

    Audio #2
    ID                          : 3
    Format                      : AC-3
    Format/Info                 : Audio Coding 3
    Commercial name             : Dolby Digital
    Codec ID                    : A_AC3
    Duration                    : 2 h 4 min
    Bit rate mode               : Constant
    Bit rate                    : 448 kb/s
    Channel(s)                  : 6 channels
    Channel layout              : L R C LFE Ls Rs
    Sampling rate               : 48.0 kHz
    Frame rate                  : 31.250 FPS (1536 SPF)
    Compression mode            : Lossy
    Delay relative to video     : -5 ms
    Stream size                 : 399 MiB (11%)
    Title                       : Ingles [CinemaniaHDD]
    Language                    : English
    Service kind                : Complete Main
    Default                     : No
    Forced                      : No

    Text #1
    ID                          : 4
    Format                      : UTF-8
    Codec ID                    : S_TEXT/UTF8
    Codec ID/Info               : UTF-8 Plain Text
    Duration                    : 1 h 54 min
    Bit rate                    : 0 b/s
    Count of elements           : 13
    Stream size                 : 649 Bytes (0%)
    Title                       : Forzados-SRT [CinemaniaHDD]
    Language                    : Spanish
    Default                     : Yes
    Forced                      : Yes

    Text #2
    ID                          : 5
    Format                      : UTF-8
    Codec ID                    : S_TEXT/UTF8
    Codec ID/Info               : UTF-8 Plain Text
    Duration                    : 2 h 1 min
    Bit rate                    : 71 b/s
    Count of elements           : 1633
    Stream size                 : 63.3 KiB (0%)
    Title                       : Español-SRT [CinemaniaHDD]
    Language                    : Spanish
    Default                     : No
    Forced                      : No

    Text #3
    ID                          : 6
    Format                      : UTF-8
    Codec ID                    : S_TEXT/UTF8
    Codec ID/Info               : UTF-8 Plain Text
    Duration                    : 2 h 0 min
    Bit rate                    : 60 b/s
    Count of elements           : 1556
    Stream size                 : 53.6 KiB (0%)
    Title                       : Ingles-SRT [CinemaniaHDD]
    Language                    : English
    Default                     : No
    Forced                      : No

    Menu
    00:00:00.000                : Chapter 01
    00:09:14.637                : Chapter 02
    00:17:31.676                : Chapter 03
    00:20:25.558                : Chapter 04
    00:26:13.030                : Chapter 05
    00:34:10.840                : Chapter 06
    00:49:55.492                : Chapter 07
    01:01:30.812                : Chapter 08
    01:06:45.752                : Chapter 09
    01:11:32.246                : Chapter 10
    01:15:28.649                : Chapter 11
    01:19:47.950                : Chapter 12
    01:24:26.436                : Chapter 13
    01:31:17.263                : Chapter 14
    01:39:43.019                : Chapter 15
    01:50:27.871                : Chapter 16
    El Milagro Del Padre Stu (2022) BDRip 1080p Latino[CMHDD].mkv
    File size                   : 7.50 GiB
    Duration                    : 2 h 4 min
    Movie name                  : Father Stu (2022) CinemaniaHDD.Net
    Video
    Format                      : AVC x264 High@L4.1
    Bit rate                    : 6 849 kb/s
    Width                       : 1 920 pixels
    Height                      : 804 pixels
    Frame rate                  : 23.976 (24000/1001) FPS
    Audio #1
    Format                      : AC-3
    Bit rate                    : 256 kb/s
    Channel(s)                  : 2 channels
    Sampling rate               : 48.0 kHz
    Title                       : Español Latino [CinemaniaHDD]
    Language                    : Spanish
    Audio #2
    Format                      : DTS
    Bit rate                    : 1 509 kb/s
    Channel(s)                  : 6 channels
    Sampling rate               : 48.0 kHz
    Title                       : Ingles [CinemaniaHDD]
    Language                    : English
    Subtitulos: Forzados-SRT, Español-SRT, Ingles-SRT

  • Peso: 3.65 GiB | 7.50 GiB

Sinopsis

Descargar El Milagro Del Padre Stu (2022) HD 1080p Latino. La historia real de un boxeador convertido en sacerdote. Cuando una lesión pone fin a su carrera como boxeador amateur, Stuart Long se muda a Los Ángeles en busca de dinero y fama. Mientras se las arregla como empleado de un supermercado, conoce a Carmen, una maestra de escuela dominical que parece inmune a su encanto de chico malo. Decidido a ganársela, el agnóstico de toda la vida comienza a ir a la iglesia para impresionarla. Sin embargo, un accidente de motocicleta lo deja preguntándose si puede usar su segunda oportunidad para ayudar a otros, lo que lo lleva a darse cuenta de que está destinado a ser un sacerdote católico.

Nota: Version Ligera & Pesada!!!

Ficha técnica

  • Titulo original: Father Stu
  • Fecha de lanzamiento: 13-04-2022 (United States of America)
  • Director: Rosalind Ross
  • Género: Drama, HD 1080p

Video trailer de la película

Enlaces de descarga

Rip de Bluray

Descargar El Milagro Del Padre Stu (2022) HD 1080p Latino




Aportes de DPeliculasHDmega la pass es:dpeliculashdmega.org Aportes de CinemaniaHD la pass es:cinemaniahdd.com
Guardado en : Drama , HD 1080p

Películas relacionadas

descargar El Milagro Del Padre Stu (2022) HD 1080p Latino 1080p 1080p gratis, El Milagro Del Padre Stu (2022) HD 1080p Latino 1080p mega 1 link, El Milagro Del Padre Stu (2022) HD 1080p Latino 1080p pelicula completa, descargar El Milagro Del Padre Stu (2022) HD 1080p Latino 1080p gratis en mega.

El Milagro Del Padre Stu (2022) HD 1080p Latino pelicula full hd, El Milagro Del Padre Stu (2022) HD 1080p Latino mega latino, El Milagro Del Padre Stu (2022) HD 1080p Latino 4k latino, El Milagro Del Padre Stu (2022) HD 1080p Latino pelicula completa, El Milagro Del Padre Stu (2022) HD 1080p Latino descargar gratis, descargar El Milagro Del Padre Stu (2022) HD 1080p Latino pelicula latino, El Milagro Del Padre Stu (2022) HD 1080p Latino 1 link mega, El Milagro Del Padre Stu (2022) HD 1080p Latino 1 link google drive, El Milagro Del Padre Stu (2022) HD 1080p Latino hd 1080p latino.
Comentarios 0