×

¿Problemas para descargar con Mozilla, EDGE? Deshabilita la opción "Abrir vinculos en una pestaña nueva" tal como lo muestra ésta imagen.

El Menú (2022) WEB-DL 1080p Latino

33 vistas

Información de El Menú (2022) WEB-DL 1080p Latino

Datos de la película

  • Calidad: WEBDL
  • Audio: Español Latino AC3 5.1 WEB-DL - Ingles AC3 5.1 WEB-DL
  • Subtitulos: Español Latino SRT- FORZADOS SRT
  • Resolución: 1920x816p
  • Formato: MKV
  • Codec: H.264
  • Encoder: Melkor
  • Mediainfo: Clic para Mostrar Datos Ver
  • El Menu (2022) WEB-DL 1080p Latino.mkv
    Format                      : Matroska
    Format version              : Version 4
    File size                   : 5.60 GiB
    Duration                    : 1 h 47 min
    Overall bit rate            : 7 489 kb/s
    Movie name                  : The Menu (2022) CinemaniaHDD.Net
    Encoded date                : UTC 2023-01-05 04:56:49
    Writing application         : mkvmerge v56.1.0 ('My Friend') 64-bit
    Writing library             : libebml v1.4.2 + libmatroska v1.6.4
    Attachments                 : CINEMANIAHD.png

    Video
    ID                          : 1
    Format                      : AVC
    Format/Info                 : Advanced Video Codec
    Format profile              : High@L4
    Format settings             : CABAC / 4 Ref Frames
    Format settings, CABAC      : Yes
    Format settings, Reference  : 4 frames
    Codec ID                    : V_MPEG4/ISO/AVC
    Duration                    : 1 h 47 min
    Bit rate mode               : Constant
    Bit rate                    : 6 463 kb/s
    Nominal bit rate            : 10 000 kb/s
    Width                       : 1 920 pixels
    Height                      : 816 pixels
    Display aspect ratio        : 2.35:1
    Frame rate mode             : Constant
    Frame rate                  : 23.976 (24000/1001) FPS
    Color space                 : YUV
    Chroma subsampling          : 4:2:0
    Bit depth                   : 8 bits
    Scan type                   : Progressive
    Bits/(Pixel*Frame)          : 0.172
    Stream size                 : 4.84 GiB (86%)
    Title                       : Web HD1080p [CinemaniaHDD]
    Default                     : Yes
    Forced                      : Yes
    Color range                 : Limited
    Color primaries             : BT.709
    Transfer characteristics    : BT.709
    Matrix coefficients         : BT.709

    Audio #1
    ID                          : 2
    Format                      : AC-3
    Format/Info                 : Audio Coding 3
    Commercial name             : Dolby Digital
    Codec ID                    : A_AC3
    Duration                    : 1 h 47 min
    Bit rate mode               : Constant
    Bit rate                    : 384 kb/s
    Channel(s)                  : 6 channels
    Channel layout              : L R C LFE Ls Rs
    Sampling rate               : 48.0 kHz
    Frame rate                  : 31.250 FPS (1536 SPF)
    Compression mode            : Lossy
    Delay relative to video     : 1 ms
    Stream size                 : 294 MiB (5%)
    Title                       : Español Latino [CinemaniaHDD]
    Language                    : Spanish
    Service kind                : Complete Main
    Default                     : Yes
    Forced                      : Yes

    Audio #2
    ID                          : 3
    Format                      : E-AC-3
    Format/Info                 : Enhanced AC-3
    Commercial name             : Dolby Digital Plus
    Codec ID                    : A_EAC3
    Duration                    : 1 h 47 min
    Bit rate mode               : Constant
    Bit rate                    : 640 kb/s
    Channel(s)                  : 6 channels
    Channel layout              : L R C LFE Ls Rs
    Sampling rate               : 48.0 kHz
    Frame rate                  : 31.250 FPS (1536 SPF)
    Compression mode            : Lossy
    Stream size                 : 490 MiB (9%)
    Title                       : Ingles [CinemaniaHDD]
    Language                    : English
    Service kind                : Complete Main
    Default                     : No
    Forced                      : No

    Text #1
    ID                          : 4
    Format                      : UTF-8
    Codec ID                    : S_TEXT/UTF8
    Codec ID/Info               : UTF-8 Plain Text
    Duration                    : 1 h 38 min
    Bit rate                    : 0 b/s
    Count of elements           : 25
    Stream size                 : 720 Bytes (0%)
    Title                       : Forzados-SRT [CinemaniaHDD]
    Language                    : Spanish
    Default                     : Yes
    Forced                      : Yes

    Text #2
    ID                          : 5
    Format                      : UTF-8
    Codec ID                    : S_TEXT/UTF8
    Codec ID/Info               : UTF-8 Plain Text
    Duration                    : 1 h 40 min
    Bit rate                    : 69 b/s
    Count of elements           : 1768
    Stream size                 : 50.9 KiB (0%)
    Title                       : Español-SRT [CinemaniaHDD]
    Language                    : Spanish
    Default                     : No
    Forced                      : No

    Text #3
    ID                          : 6
    Format                      : UTF-8
    Codec ID                    : S_TEXT/UTF8
    Codec ID/Info               : UTF-8 Plain Text
    Duration                    : 1 h 40 min
    Bit rate                    : 80 b/s
    Count of elements           : 1898
    Stream size                 : 58.8 KiB (0%)
    Title                       : Ingles-SRT [CinemaniaHDD]
    Language                    : English
    Default                     : No
    Forced                      : No

  • Peso: 5.60 GiB

Sinopsis

Descargar El Menú (2022) WEB-DL 1080p Latino. Una joven pareja viaja a uno de los destinos más exclusivos del mundo para cenar en un restaurante que ofrece una experiencia culinaria única. Sin embargo, el chef ha preparado un ingrediente secreto que tendrá un resultado sorprendente en los dos enamorados.

Ficha técnica

Video trailer de la película

Enlaces de descarga

Rip de Bluray

Descargar El Menú (2022) WEB-DL 1080p Latino




Aportes de DPeliculasHDmega la pass es:dpeliculashdmega.org Aportes de CinemaniaHD la pass es:cinemaniahdd.com
Guardado en : Comedia , Suspenso , Terror

Películas relacionadas

  • Juego de espías (2001) 1080p Latino

    Juego de espías (2001) 1080p Latino

    2001
    Juego de espías (2001) 1080p Latino

    2h 6m 2001

    Descargar Juego de espías (2001) 1080p Latino. Corre el año 1991, y al veterano agente de la CIA Nathan...

    Director: Tony Scott

    Género: Acción

    Actores: Zsolt Zágoni

  • Juego de espías (2001) Full HD 1080p Latino

    Juego de espías (2001) Full HD 1080p Latino

    2001
    Juego de espías (2001) Full HD 1080p Latino

    2h 6m 2001

    Descargar Juego de espías (2001) Full HD 1080p Latino. Corre el año 1991, y al veterano agente de la...

    Director: Tony Scott

    Género: Acción

    Actores: Zsolt Zágoni

  • Juego de espías (2001) REMUX 1080p Latino

    Juego de espías (2001) REMUX 1080p Latino

    2001
    Juego de espías (2001) REMUX 1080p Latino

    1h 55m 2001

    Descargar Juego de espías (2001) REMUX 1080p Latino. El día de su jubilación, el veterano agente de...

    Director: Tony Scott

    Género: Acción

    Actores: Zsolt Zágoni

  • Hombre de familia (2000) REMUX 1080p Latino

    Hombre de familia (2000) REMUX 1080p Latino

    2000
    Hombre de familia (2000) REMUX 1080p Latino

    2h 1m 2000

    Descargar Hombre de familia (2000) REMUX 1080p Latino. Jack Campbell es un egocéntrico broker de Wall...

    Director: Robert Schroer

    Género: Comedia

    Actores: Wass Stevens

descargar El Menú (2022) WEB-DL 1080p Latino WEBDL 1080p gratis, El Menú (2022) WEB-DL 1080p Latino WEBDL mega 1 link, El Menú (2022) WEB-DL 1080p Latino WEBDL pelicula completa, descargar El Menú (2022) WEB-DL 1080p Latino WEBDL gratis en mega.

El Menú (2022) WEB-DL 1080p Latino pelicula full hd, El Menú (2022) WEB-DL 1080p Latino mega latino, El Menú (2022) WEB-DL 1080p Latino 4k latino, El Menú (2022) WEB-DL 1080p Latino pelicula completa, El Menú (2022) WEB-DL 1080p Latino descargar gratis, descargar El Menú (2022) WEB-DL 1080p Latino pelicula latino, El Menú (2022) WEB-DL 1080p Latino 1 link mega, El Menú (2022) WEB-DL 1080p Latino 1 link google drive, El Menú (2022) WEB-DL 1080p Latino hd 1080p latino.
Comentarios 0