El mecanismo (2018) Primera Temporada WEB-DL Latino

768 vistas
1 estrella2 estrellas3 estrellas4 estrellas5 estrellas (1 votos, promedio: 5,00 de 5)
Cargando…

Información de El mecanismo (2018) Primera Temporada WEB-DL Latino

Datos de la película

  • Calidad: WEBDL
  • Audio: Se especifica abajo de la Sinopsis
  • Subtitulos: Español Latino SRT- FORZADOS SRT
  • Resolución: 1920x1080p
  • Formato: MKV
  • Codec: H.264
  • Encoder: Dracarys
  • Mediainfo: Clic para Mostrar Datos Ver
  • Format                                   : Matroska
    Format version                           : Version 4 / Version 2
    File size                                : 3.72 GiB
    Duration                                 : 41 min 42 s
    Overall bit rate                         : 12.8 Mb/s
    Movie name                               : CinemaniaHDD.net
    Encoded date                             : UTC 2018-07-26 06:05:19
    Writing application                      : mkvmerge v15.0.0 ('Duel with the Devil') 64-bit
    Writing library                          : libebml v1.3.5 + libmatroska v1.4.5

    Video
    ID                                       : 1
    Format                                   : AVC
    Format/Info                              : Advanced Video Codec
    Format profile                           : High@L4.1
    Format settings                          : CABAC / 4 Ref Frames
    Format settings, CABAC                   : Yes
    Format settings, RefFrames               : 4 frames
    Codec ID                                 : V_MPEG4/ISO/AVC
    Duration                                 : 41 min 42 s
    Bit rate                                 : 12.0 Mb/s
    Width                                    : 1 920 pixels
    Height                                   : 1 080 pixels
    Display aspect ratio                     : 16:9
    Frame rate mode                          : Constant
    Frame rate                               : 23.976 (24000/1001) FPS
    Color space                              : YUV
    Chroma subsampling                       : 4:2:0
    Bit depth                                : 8 bits
    Scan type                                : Progressive
    Bits/(Pixel*Frame)                       : 0.241
    Stream size                              : 3.49 GiB (94%)
    Title                                    : El mecanismo S01E06 (2018) WEB-DL Latino
    Writing library                          : x264 core 152 r2851kMod ba24899
    Encoding settings                        : cabac=1 / ref=4 / deblock=1:-3:-3 / analyse=0x3:0x133 / me=umh / subme=10 / psy=1 / fade_compensate=0.00 / psy_rd=1.00:0.00 / mixed_ref=1 / me_range=48 / chroma_me=1 / trellis=2 / 8x8dct=1 / cqm=0 / deadzone=21,11 / fast_pskip=0 / chroma_qp_offset=-2 / threads=24 / lookahead_threads=4 / sliced_threads=0 / nr=0 / decimate=0 / interlaced=0 / bluray_compat=0 / constrained_intra=0 / bframes=8 / b_pyramid=2 / b_adapt=2 / b_bias=0 / direct=3 / weightb=1 / open_gop=0 / weightp=2 / keyint=250 / keyint_min=23 / scenecut=40 / intra_refresh=0 / rc=crf / mbtree=0 / crf=17.0000 / qcomp=0.60 / qpmin=0 / qpmax=69 / qpstep=4 / ip_ratio=1.30 / pb_ratio=1.20 / aq=3:0.80
    Language                                 : Portuguese
    Default                                  : Yes
    Forced                                   : No

    Audio #1
    ID                                       : 2
    Format                                   : AC-3
    Format/Info                              : Audio Coding 3
    Format settings, Endianness              : Big
    Codec ID                                 : A_AC3
    Duration                                 : 41 min 42 s
    Bit rate mode                            : Constant
    Bit rate                                 : 384 kb/s
    Channel(s)                               : 6 channels
    Channel positions                        : Front: L C R, Side: L R, LFE
    Sampling rate                            : 48.0 kHz
    Frame rate                               : 31.250 FPS (1536 SPF)
    Bit depth                                : 16 bits
    Compression mode                         : Lossy
    Stream size                              : 115 MiB (3%)
    Language                                 : Spanish
    Service kind                             : Complete Main
    Default                                  : Yes
    Forced                                   : No

    Audio #2
    ID                                       : 3
    Format                                   : AC-3
    Format/Info                              : Audio Coding 3
    Format settings, Endianness              : Big
    Codec ID                                 : A_AC3
    Duration                                 : 41 min 42 s
    Bit rate mode                            : Constant
    Bit rate                                 : 384 kb/s
    Channel(s)                               : 6 channels
    Channel positions                        : Front: L C R, Side: L R, LFE
    Sampling rate                            : 48.0 kHz
    Frame rate                               : 31.250 FPS (1536 SPF)
    Bit depth                                : 16 bits
    Compression mode                         : Lossy
    Stream size                              : 115 MiB (3%)
    Language                                 : Portuguese
    Service kind                             : Complete Main
    Default                                  : No
    Forced                                   : No

    Text #1
    ID                                       : 4
    Format                                   : UTF-8
    Codec ID                                 : S_TEXT/UTF8
    Codec ID/Info                            : UTF-8 Plain Text
    Duration                                 : 39 min 8 s
    Bit rate                                 : 70 b/s
    Count of elements                        : 539
    Stream size                              : 20.3 KiB (0%)
    Language                                 : Spanish
    Default                                  : No
    Forced                                   : No

    Text #2
    ID                                       : 5
    Format                                   : UTF-8
    Codec ID                                 : S_TEXT/UTF8
    Codec ID/Info                            : UTF-8 Plain Text
    Duration                                 : 39 min 8 s
    Bit rate                                 : 3 b/s
    Count of elements                        : 17
    Stream size                              : 1.07 KiB (0%)
    Title                                    : Forzados
    Language                                 : Spanish
    Default                                  : Yes
    Forced                                   : No

  • Peso: 3.72 GiB X Capitulos

Sinopsis

La investigación de una trama de corrupción gubernamental con empresas petrolíferas y de construcción descubre un escándalo en Brasil. Basada libremente en hechos reales.

 

 

Latino AC3 5.1 Netflix  –  Portugués AC3 5.1 Netflix

Ficha técnica

Video trailer de la película

Enlaces de descarga

Rip de Bluray

Descargar El mecanismo (2018) Primera Temporada WEB-DL Latino




Aportes de DPeliculasHDmega la pass es:dpeliculashdmega.org Aportes de CinemaniaHD la pass es:cinemaniahdd.com
Guardado en : Crimen , Drama

Películas relacionadas

  • El Justiciero 2 (2018) Full 1080p Latino

    2018
    El Justiciero 2 (2018) Full 1080p Latino

    0.0 2h 0m 2018

    Descargar El Justiciero 2 (2018) Full 1080p Latino, Mega, Google Drive. Robert McCall (Denzel Washington)...

    Director: Donald Sparks

    Género: Acción

    Actores: Wesley Pereira

  • Arrow (2018) Temporada 07 AMZN Web-DL 1080p Latino

    2012
    Arrow (2018) Temporada 07 AMZN Web-DL 1080p Latino

    2.7 0h 42m 2012

    Descargar Arrow Temporada 07 AMZN Web-DL 1080p Latino; Mega, Google Drive. No ha habido escasez de llamadas...

    Director: Marc Guggenheim

    Género: Action & Adventure

    Actores: Stephen Amell

Comentarios 0