El Mariachi (1992) Full 1080p Latino

719 vistas
1 estrella2 estrellas3 estrellas4 estrellas5 estrellas (3 votos, promedio: 3,67 de 5)
Cargando…

Información de El Mariachi (1992) Full 1080p Latino

Datos de la película

  • Calidad: Full 1080p
  • Audio: Se especifica abajo de la Sinopsis
  • Subtitulos: Español Latino PGS - Ingles PGS
  • Resolución: 1920x1080p
  • Formato: MKV
  • Codec: H.264
  • Encoder: Dracarys
  • Mediainfo: Clic para Mostrar Datos Ver
  • Format                                   : Matroska
    Format version                           : Version 4 / Version 2
    File size                                : 13.8 GiB
    Duration                                 : 1 h 21 min
    Overall bit rate                         : 24.2 Mb/s
    Movie name                               : CinemaniaHDD.net
    Encoded date                             : UTC 2018-10-10 19:46:35 / UTC 2018-10-01T07:29:14Z
    Writing application                      : mkvmerge v15.0.0 ('Duel with the Devil') 64-bit
    Writing library                          : libebml v1.3.5 + libmatroska v1.4.5 / Lavf57.7.2

    Video
    ID                                       : 1
    Format                                   : AVC
    Format/Info                              : Advanced Video Codec
    Format profile                           : High@L4.1
    Format settings                          : CABAC / 4 Ref Frames
    Format settings, CABAC                   : Yes
    Format settings, RefFrames               : 4 frames
    Codec ID                                 : V_MPEG4/ISO/AVC
    Duration                                 : 1 h 21 min
    Bit rate                                 : 22.2 Mb/s
    Width                                    : 1 920 pixels
    Height                                   : 1 080 pixels
    Display aspect ratio                     : 16:9
    Frame rate mode                          : Constant
    Frame rate                               : 23.976 (24000/1001) FPS
    Color space                              : YUV
    Chroma subsampling                       : 4:2:0
    Bit depth                                : 8 bits
    Scan type                                : Progressive
    Bits/(Pixel*Frame)                       : 0.447
    Stream size                              : 12.7 GiB (92%)
    Writing library                          : x264 core 148 r2708 86b7198
    Encoding settings                        : cabac=1 / ref=4 / deblock=1:0:0 / analyse=0x3:0x133 / me=esa / subme=10 / psy=1 / psy_rd=1.00:0.00 / mixed_ref=1 / me_range=24 / chroma_me=1 / trellis=2 / 8x8dct=1 / cqm=0 / deadzone=21,11 / fast_pskip=1 / chroma_qp_offset=-2 / threads=34 / lookahead_threads=5 / sliced_threads=0 / nr=0 / decimate=1 / interlaced=0 / bluray_compat=0 / constrained_intra=0 / bframes=8 / b_pyramid=2 / b_adapt=2 / b_bias=0 / direct=3 / weightb=1 / open_gop=0 / weightp=2 / keyint=240 / keyint_min=24 / scenecut=40 / intra_refresh=0 / rc_lookahead=60 / rc=crf / mbtree=1 / crf=20.0 / qcomp=0.60 / qpmin=0 / qpmax=69 / qpstep=4 / vbv_maxrate=62500 / vbv_bufsize=78125 / crf_max=0.0 / nal_hrd=none / filler=0 / ip_ratio=1.40 / aq=1:1.00
    Language                                 : Spanish
    Default                                  : Yes
    Forced                                   : No
    Color range                              : Limited
    Color primaries                          : BT.709
    Transfer characteristics                 : BT.709
    Matrix coefficients                      : BT.709
    Statistics Tags Issue                    : mkvmerge v15.0.0 ('Duel with the Devil') 64-bit 2018-10-10 19:46:35 / mkvmerge v15.0.0 ('Duel with the Devil') 64-bit 2018-10-10 19:46:35 / UTC 2018-10-01T07:29:14Z
    FromStats_BitRate                        : 22716664
    FromStats_Duration                       : 01:21:28.926000000
    FromStats_FrameCount                     : 117217
    FromStats_StreamSize                     : 13882511742

    Audio
    ID                                       : 2
    Format                                   : DTS
    Format/Info                              : Digital Theater Systems
    Mode                                     : 16
    Format settings, Endianness              : Big
    Codec ID                                 : A_DTS
    Duration                                 : 1 h 21 min
    Bit rate mode                            : Constant
    Bit rate                                 : 1 509 kb/s
    Channel(s)                               : 2 channels
    Channel positions                        : Front: L R
    Sampling rate                            : 48.0 kHz
    Frame rate                               : 93.750 FPS (512 SPF)
    Bit depth                                : 16 bits
    Compression mode                         : Lossy
    Stream size                              : 879 MiB (6%)
    Language                                 : Spanish
    Default                                  : Yes
    Forced                                   : No
    Statistics Tags Issue                    : mkvmerge v15.0.0 ('Duel with the Devil') 64-bit 2018-10-10 19:46:35 / mkvmerge v15.0.0 ('Duel with the Devil') 64-bit 2018-10-10 19:46:35 / UTC 2018-10-01T07:29:14Z
    FromStats_BitRate                        : 1508999
    FromStats_Duration                       : 01:21:28.918000000
    FromStats_FrameCount                     : 458336
    FromStats_StreamSize                     : 922172032

    Text #1
    ID                                       : 3
    Format                                   : PGS
    Muxing mode                              : zlib
    Codec ID                                 : S_HDMV/PGS
    Codec ID/Info                            : Picture based subtitle format used on BDs/HD-DVDs
    Language                                 : English
    Default                                  : No
    Forced                                   : No
    Statistics Tags Issue                    : mkvmerge v15.0.0 ('Duel with the Devil') 64-bit 2018-10-10 19:46:35 / mkvmerge v15.0.0 ('Duel with the Devil') 64-bit 2018-10-10 19:46:35 / UTC 2018-10-01T07:29:14Z
    FromStats_BitRate                        : 13180
    FromStats_Duration                       : 01:15:44.165000000
    FromStats_FrameCount                     : 940
    FromStats_StreamSize                     : 7486730

    Text #2
    ID                                       : 4
    Format                                   : PGS
    Muxing mode                              : zlib
    Codec ID                                 : S_HDMV/PGS
    Codec ID/Info                            : Picture based subtitle format used on BDs/HD-DVDs
    Language                                 : Spanish
    Default                                  : No
    Forced                                   : No
    Statistics Tags Issue                    : mkvmerge v15.0.0 ('Duel with the Devil') 64-bit 2018-10-10 19:46:35 / mkvmerge v15.0.0 ('Duel with the Devil') 64-bit 2018-10-10 19:46:35 / UTC 2018-10-01T07:29:14Z
    FromStats_BitRate                        : 0
    FromStats_Duration                       : 00:00:00.000000000
    FromStats_FrameCount                     : 0
    FromStats_StreamSize                     : 0

    Menu
    00:00:00.000                             : :Chapter 1
    00:08:30.510                             : :Chapter 2
    00:12:40.426                             : :Chapter 3
    00:19:20.409                             : :Chapter 4
    00:23:42.796                             : :Chapter 5
    00:27:05.749                             : :Chapter 6
    00:32:45.380                             : :Chapter 7
    00:37:14.983                             : :Chapter 8
    00:41:00.833                             : :Chapter 9
    00:44:32.003                             : :Chapter 10
    00:47:35.394                             : :Chapter 11
    00:53:40.926                             : :Chapter 12
    00:57:44.211                             : :Chapter 13
    01:04:00.378                             : :Chapter 14
    01:08:07.208                             : :Chapter 15
    01:14:52.238                             : :Chapter 16

     

  • Peso: 13.8 GiB

Sinopsis

Un joven mariachi que se gana la vida actuando en diferentes lugares llega a un pueblo de la frontera mexicana al mismo tiempo que un peligroso matón, cuya misión es asesinar al amo del lugar.

 

 

Latino: DTS 2.0 Bluray

Ficha técnica

Video trailer de la película

Enlaces de descarga

Rip de Bluray

Descargar El Mariachi (1992) Full 1080p Latino




Aportes de DPeliculasHDmega la pass es:dpeliculashdmega.org Aportes de CinemaniaHD la pass es:cinemaniahdd.com

Películas relacionadas

  • El Justiciero 2 (2018) Full 1080p Latino

    2018
    El Justiciero 2 (2018) Full 1080p Latino

    0.0 2h 0m 2018

    Descargar El Justiciero 2 (2018) Full 1080p Latino, Mega, Google Drive. Robert McCall (Denzel Washington)...

    Director: Donald Sparks

    Género: Acción

    Actores: Wesley Pereira

  • Arrow (2018) Temporada 07 AMZN Web-DL 1080p Latino

    2012
    Arrow (2018) Temporada 07 AMZN Web-DL 1080p Latino

    2.7 0h 42m 2012

    Descargar Arrow Temporada 07 AMZN Web-DL 1080p Latino; Mega, Google Drive. No ha habido escasez de llamadas...

    Director: Marc Guggenheim

    Género: Action & Adventure

    Actores: Stephen Amell

  • El Justiciero 2 (2018) 1080p Latino

    2018
    El Justiciero 2 (2018) 1080p Latino

    2.5 2h 0m 2018

    Descargar El Justiciero 2 (2018) 1080p Latino, Mega, Google Drive. Robert McCall (Denzel Washington)...

    Director: Donald Sparks

    Género: Acción

    Actores: Wesley Pereira

Comentarios 0