×

¿Problemas para descargar con Mozilla, EDGE? Deshabilita la opción "Abrir vinculos en una pestaña nueva" tal como lo muestra ésta imagen.

El Mago de Oz (1939) REMUX 1080p Latino

1.134 vistas

Información de El Mago de Oz (1939) REMUX 1080p Latino

Datos de la película

  • Calidad: Full 1080p
  • Audio: Se especifica abajo de la Sinopsis
  • Subtitulos: Español Latino PGS - Ingles PGS
  • Resolución: 1920x1080p
  • Formato: MKV
  • Codec: H.264
  • Encoder: CinefiloCool
  • Mediainfo: Clic para Mostrar Datos Ver
  • El Mago de Oz (1939) REMUX 1080p Latino-CMHDD.mkv
    Format                      : Matroska
    Format version              : Version 4
    File size                   : 17.9 GiB
    Duration                    : 1 h 41 min
    Overall bit rate mode       : Variable
    Overall bit rate            : 25.2 Mb/s
    Movie name                  : The Wizard of Oz (1939) CinemaniaHDD.Net
    Encoded date                : UTC 2023-10-21 01:47:00
    Writing application         : mkvmerge v56.1.0 ('My Friend') 64-bit
    Writing library             : libebml v1.4.2 + libmatroska v1.6.4
    Cover                       : Yes
    Attachments                 : cover.jpg

    Video
    ID                          : 1
    ID in the original source m : 4113 (0x1011)
    Format                      : VC-1
    Format profile              : Advanced@L3
    Codec ID                    : V_MS/VFW/FOURCC / WVC1
    Codec ID/Hint               : Microsoft
    Duration                    : 1 h 41 min
    Bit rate                    : 23.0 Mb/s
    Width                       : 1 920 pixels
    Height                      : 1 080 pixels
    Display aspect ratio        : 16:9
    Frame rate mode             : Constant
    Frame rate                  : 23.976 (24000/1001) FPS
    Color space                 : YUV
    Chroma subsampling          : 4:2:0
    Bit depth                   : 8 bits
    Scan type                   : Progressive
    Compression mode            : Lossy
    Bits/(Pixel*Frame)          : 0.462
    Stream size                 : 16.3 GiB (91%)
    Title                       : Full HD1080p [REMUX]
    Default                     : Yes
    Forced                      : Yes
    Original source medium      : Blu-ray

    Audio #1
    ID                          : 2
    Format                      : AC-3
    Format/Info                 : Audio Coding 3
    Commercial name             : Dolby Digital
    Codec ID                    : A_AC3
    Duration                    : 1 h 41 min
    Bit rate mode               : Constant
    Bit rate                    : 192 kb/s
    Channel(s)                  : 2 channels
    Channel layout              : L R
    Sampling rate               : 48.0 kHz
    Frame rate                  : 31.250 FPS (1536 SPF)
    Compression mode            : Lossy
    Stream size                 : 140 MiB (1%)
    Title                       : AC3_2.0_Bluray_Esp
    Language                    : Spanish
    Service kind                : Complete Main
    Default                     : Yes
    Forced                      : Yes

    Audio #2
    ID                          : 3
    ID in the original source m : 4352 (0x1100)
    Format                      : MLP FBA
    Format/Info                 : Meridian Lossless Packing FBA
    Commercial name             : Dolby TrueHD
    Codec ID                    : A_TRUEHD
    Duration                    : 1 h 41 min
    Bit rate mode               : Variable
    Bit rate                    : 1 308 kb/s
    Maximum bit rate            : 1 782 kb/s
    Channel(s)                  : 6 channels
    Channel layout              : L R C LFE Ls Rs
    Sampling rate               : 48.0 kHz
    Frame rate                  : 1 200.000 FPS (40 SPF)
    Compression mode            : Lossless
    Stream size                 : 952 MiB (5%)
    Title                       : THD_5.1_Bluray_Eng
    Language                    : English
    Default                     : No
    Forced                      : No
    Original source medium      : Blu-ray

    Audio #3
    ID                          : 4
    Format                      : AC-3
    Format/Info                 : Audio Coding 3
    Commercial name             : Dolby Digital
    Codec ID                    : A_AC3
    Duration                    : 1 h 41 min
    Bit rate mode               : Constant
    Bit rate                    : 640 kb/s
    Channel(s)                  : 6 channels
    Channel layout              : L R C LFE Ls Rs
    Sampling rate               : 48.0 kHz
    Frame rate                  : 31.250 FPS (1536 SPF)
    Compression mode            : Lossy
    Stream size                 : 466 MiB (3%)
    Title                       : AC3_5.1_Bluray_Eng
    Language                    : English
    Service kind                : Complete Main
    Default                     : No
    Forced                      : No

    Text #1
    ID                          : 5
    ID in the original source m : 4779 (0x12AB)
    Format                      : PGS
    Muxing mode                 : zlib
    Codec ID                    : S_HDMV/PGS
    Codec ID/Info               : Picture based subtitle format used on BDs/HD-DVDs
    Duration                    : 1 h 41 min
    Bit rate                    : 32.8 kb/s
    Count of elements           : 2794
    Stream size                 : 23.7 MiB (0%)
    Title                       : Sub_Lat+Songs [PGS]
    Language                    : Spanish
    Default                     : No
    Forced                      : No
    Original source medium      : Blu-ray

    Text #2
    ID                          : 6
    ID in the original source m : 4774 (0x12A6)
    Format                      : PGS
    Muxing mode                 : zlib
    Codec ID                    : S_HDMV/PGS
    Codec ID/Info               : Picture based subtitle format used on BDs/HD-DVDs
    Duration                    : 1 h 40 min
    Bit rate                    : 31.8 kb/s
    Count of elements           : 2778
    Stream size                 : 23.0 MiB (0%)
    Title                       : Sub_Cast+Songs [PGS]
    Language                    : Spanish
    Default                     : No
    Forced                      : No
    Original source medium      : Blu-ray

    Text #3
    ID                          : 7
    ID in the original source m : 4769 (0x12A1)
    Format                      : PGS
    Muxing mode                 : zlib
    Codec ID                    : S_HDMV/PGS
    Codec ID/Info               : Picture based subtitle format used on BDs/HD-DVDs
    Duration                    : 1 h 39 min
    Bit rate                    : 38.6 kb/s
    Count of elements           : 3000
    Stream size                 : 27.4 MiB (0%)
    Title                       : Sub_Eng+Songs [PGS]
    Language                    : English
    Default                     : No
    Forced                      : No
    Original source medium      : Blu-ray

    Text #4
    ID                          : 8
    Format                      : UTF-8
    Codec ID                    : S_TEXT/UTF8
    Codec ID/Info               : UTF-8 Plain Text
    Duration                    : 1 h 28 min
    Bit rate                    : 12 b/s
    Count of elements           : 246
    Stream size                 : 8.25 KiB (0%)
    Title                       : Sub_Forzados
    Language                    : Spanish
    Default                     : Yes
    Forced                      : Yes

    Text #5
    ID                          : 9
    Format                      : UTF-8
    Codec ID                    : S_TEXT/UTF8
    Codec ID/Info               : UTF-8 Plain Text
    Duration                    : 1 h 41 min
    Bit rate                    : 63 b/s
    Count of elements           : 1397
    Stream size                 : 47.3 KiB (0%)
    Title                       : Sub_Esp
    Language                    : Spanish
    Default                     : No
    Forced                      : No

    Menu
    00:00:00.000                : :Main Title
    00:01:36.096                : :Prologue
    00:01:56.116                : :Dorothy's Dilemma
    00:05:49.349                : :Over the Rainbow
    00:08:02.440                : :Miss Gulch
    00:10:21.121                : :Toto Escapes
    00:11:02.829                : :Dorothy Runs Away
    00:12:47.767                : :Crystal Gazing
    00:15:06.406                : :"It's A Twister!"
    00:17:01.562                : :Inside the Cyclone
    00:19:26.832                : :Not in Kansas Anymore
    00:22:59.128                : :Come Out, Come Out
    00:23:43.714                : :It Really Was No Miracle
    00:24:52.992                : :Ding! Dong! The Witch Is Dead!
    00:27:35.612                : :The Lullaby League
    00:28:03.682                : :The Lollipop Guild
    00:29:06.745                : :"Who Killed My Sister?"
    00:31:05.906                : :"What a Smell of Sulfur!"
    00:32:43.962                : :Follow the Yellow Brick Road
    00:33:16.995                : :You're Off to See the Wizard
    00:34:04.125                : :Dorothy Meets the Scarecrow
    00:36:35.193                : :If I Only Had a Brain
    00:38:48.827                : :We're Off to See the Wizard
    00:39:16.855                : :"Apples!"
    00:40:29.719                : :"A Man Made Out of Tin!"
    00:42:49.567                : :If I Only Had a Heart
    00:45:55.753                : :"Wanna Play Ball?"
    00:47:00.693                : :"To Oz? To Oz!"
    00:47:56.874                : :"Lions and Tigers and Bears. Oh My!"
    00:49:05.192                : :Meeting the Cowardly Lion
    00:52:09.627                : :If I Only Had the Nerve
    00:52:51.418                : :We're Off to See the Wizard
    00:53:54.231                : :"Poppies Will Put Them to Sleep!"
    00:57:20.437                : :Optimistic Voices
    00:58:23.875                : :The Emerald City
    01:00:34.631                : :The Merry Old Land of Oz
    01:02:14.397                : :Surrender, Dorothy
    01:03:59.336                : :If I Were the King of the Forest
    01:08:46.080                : :Meeting the Wizard of Oz
    01:12:45.361                : :The Haunted Forest
    01:14:31.467                : :Attack of the Winged Monkeys
    01:16:11.567                : :Dorothy in Captivity
    01:17:25.724                : :Toto's Escape
    01:20:39.835                : :March of the Winkies
    01:23:20.245                : :The Rescue
    01:24:51.253                : :"Seize Them!"
    01:25:55.442                : :"I'm Melting!"
    01:26:59.631                : :"The Wicked Witch Is Dead!"
    01:28:23.882                : :The Wizard Revealed
    01:29:23.650                : :Heroic Rewards
    01:33:48.623                : :The Wizard's Balloon
    01:35:51.246                : :Glinda Returns
    01:37:33.431                : :Dorothy's Farewell
    01:38:40.206                : :"There's No Place Like Home!"
    01:41:23.578                : :Cast List

  • Peso: 17.9 GiB

Sinopsis

Descargar El Mago de Oz (1939) REMUX 1080p Latino. La huérfana Dorothy Gale vive una vida sencilla en Kansas con su tía Emma Clara Blandick, su tío Henry y tres pintorescos peones: Hunk (Ray Bolger), Zeke (Bert Lahr) y Hickory (Jack Haley). Un día la severa vecina Miss Gulch (Margaret Hamilton) es mordida por el perro de Dorothy, Toto. Miss Gulch se lo lleva, por orden del sheriff, a pesar de las apasionadas protestas de tía Emma y el tío Henry. Toto escapa y regresa junto a Dorothy, la cual se alegra momentáneamente, pero pronto se da cuenta de que Miss Gulch regresará. Decide llevarse a Toto y fugarse en busca de una vida mejor «en algún lugar sobre el arco iris».

Audio Español Latino AC3 2.0 Bluray – Ingles TrueHD+AC3 5.1 Bluray
RESUBIDA!!!

Ficha técnica

Video trailer de la película

Enlaces de descarga

Rip de Bluray

Descargar El Mago de Oz (1939) REMUX 1080p Latino




Aportes de DPeliculasHDmega la pass es:dpeliculashdmega.org Aportes de CinemaniaHD la pass es:cinemaniahdd.com Aportes recientes:cinemaniahdd.net
Guardado en : Aventura , Familia , Fantasía , Remux

Películas relacionadas

  • Red de venganza (2023) REMUX 1080p Latino

    Red de venganza (2023) REMUX 1080p Latino

    2023
    Red de venganza (2023) REMUX 1080p Latino

    1h 25m 2023

    Descargar Red de venganza (2023) REMUX 1080p Latino. Analiza los problemas que surgen entre una madre...

    Director: Amy Redford

    Género: Drama

    Actores: Summer Phoenix

  • The Shift (2023) AMZN WEB-DL 1080p Latino

    The Shift (2023) AMZN WEB-DL 1080p Latino

    2023
    The Shift (2023) AMZN WEB-DL 1080p Latino

    1h 53m 2023

    Descargar The Shift (2023) AMZN WEB-DL 1080p Latino. Kevin viaja a través de los mundos para reunirse...

    Director: Brock Heasley

    Género: Ciencia ficción

    Actores: Teck

  • Kung Fu Panda 4 (2024) 1080p Latino-CMHDD

    Kung Fu Panda 4 (2024) 1080p Latino-CMHDD

    2024
    Kung Fu Panda 4 (2024) 1080p Latino-CMHDD

    1h 34m 2024

    Descargar Kung Fu Panda 4 (2024) 1080p Latino-CMHDD. Po se prepara para ser el líder espiritual del...

    Director: Stephanie Ma Stine

    Género: Acción

    Actores: Viola Davis

  • Kung Fu Panda 4 (2024) Full HD 1080p Latino-CMHDD

    Kung Fu Panda 4 (2024) Full HD 1080p Latino-CMHDD

    2024
    Kung Fu Panda 4 (2024) Full HD 1080p Latino-CMHDD

    1h 34m 2024

    Descargar Kung Fu Panda 4 (2024) Full HD 1080p Latino-CMHDD. Po se prepara para ser el líder espiritual...

    Director: Stephanie Ma Stine

    Género: Acción

    Actores: Viola Davis

  • Kung Fu Panda 4 (2024) REMUX 1080p Latino-CMHDD

    Kung Fu Panda 4 (2024) REMUX 1080p Latino-CMHDD

    2024
    Kung Fu Panda 4 (2024) REMUX 1080p Latino-CMHDD

    1h 34m 2024

    Descargar Kung Fu Panda 4 (2024) REMUX 1080p Latino-CMHDD. Po se prepara para ser el líder espiritual...

    Director: Stephanie Ma Stine

    Género: Acción

    Actores: Viola Davis

descargar El Mago de Oz (1939) REMUX 1080p Latino Full 1080p 1080p gratis, El Mago de Oz (1939) REMUX 1080p Latino Full 1080p mega 1 link, El Mago de Oz (1939) REMUX 1080p Latino Full 1080p pelicula completa, descargar El Mago de Oz (1939) REMUX 1080p Latino Full 1080p gratis en mega.

El Mago de Oz (1939) REMUX 1080p Latino pelicula full hd, El Mago de Oz (1939) REMUX 1080p Latino mega latino, El Mago de Oz (1939) REMUX 1080p Latino 4k latino, El Mago de Oz (1939) REMUX 1080p Latino pelicula completa, El Mago de Oz (1939) REMUX 1080p Latino descargar gratis, descargar El Mago de Oz (1939) REMUX 1080p Latino pelicula latino, El Mago de Oz (1939) REMUX 1080p Latino 1 link mega, El Mago de Oz (1939) REMUX 1080p Latino 1 link google drive, El Mago de Oz (1939) REMUX 1080p Latino hd 1080p latino.
Comentarios 0