×

¿Problemas para descargar con Mozilla, EDGE? Deshabilita la opción "Abrir vinculos en una pestaña nueva" tal como lo muestra ésta imagen.

El Mago de Oz (1939) Full HD 1080p Latino

1.358 vistas

Información de El Mago de Oz (1939) Full HD 1080p Latino

Datos de la película

  • Calidad: Full 1080p
  • Audio: Español Latino AC3 2.0 BLURAY - Ingles AC3 5.1 BLURAY
  • Subtitulos: Español Latino PGS - Ingles PGS
  • Resolución: 1920x1080p
  • Formato: MKV
  • Codec: H.264
  • Encoder: CinefiloCool
  • Mediainfo: Clic para Mostrar Datos Ver
  • El Mago de Oz (1939) Full HD 1080p Latino-CMHDD.mkv
    Format                      : Matroska
    Format version              : Version 4
    File size                   : 15.6 GiB
    Duration                    : 1 h 41 min
    Overall bit rate            : 21.9 Mb/s
    Movie name                  : CinemaniaHDD.Net
    Encoded date                : UTC 2019-11-07 03:35:36
    Writing application         : mkvmerge v38.0.0 ('The Silent Type') 64-bit
    Writing library             : libebml v1.3.9 + libmatroska v1.5.2
    Attachments                 : CINEMANIAHD.png

    Video
    ID                          : 1
    Format                      : AVC
    Format/Info                 : Advanced Video Codec
    Format profile              : High@L4.1
    Format settings             : CABAC / 4 Ref Frames
    Format settings, CABAC      : Yes
    Format settings, ReFrames   : 4 frames
    Codec ID                    : V_MPEG4/ISO/AVC
    Duration                    : 1 h 41 min
    Bit rate                    : 21.0 Mb/s
    Width                       : 1 920 pixels
    Height                      : 1 080 pixels
    Display aspect ratio        : 16:9
    Frame rate mode             : Constant
    Frame rate                  : 23.976 (24000/1001) FPS
    Color space                 : YUV
    Chroma subsampling          : 4:2:0
    Bit depth                   : 8 bits
    Scan type                   : Progressive
    Bits/(Pixel*Frame)          : 0.423
    Stream size                 : 15.0 GiB (96%)
    Title                       : Full HD1080p [Bluray]
    Writing library             : x264 core 157 r2935 545de2f
    Encoding settings           : cabac=1 / ref=4 / deblock=1:-2:-2 / analyse=0x3:0x133 / me=tesa / subme=11 / psy=1 / psy_rd=1.00:0.25 / mixed_ref=1 / me_range=24 / chroma_me=1 / trellis=2 / 8x8dct=1 / cqm=0 / deadzone=6,6 / fast_pskip=0 / chroma_qp_offset=-4 / threads=34 / lookahead_threads=8 / sliced_threads=0 / nr=0 / decimate=0 / interlaced=0 / bluray_compat=0 / constrained_intra=0 / bframes=16 / b_pyramid=2 / b_adapt=2 / b_bias=0 / direct=3 / weightb=1 / open_gop=0 / weightp=2 / keyint=240 / keyint_min=24 / scenecut=40 / intra_refresh=0 / rc_lookahead=60 / rc=crf / mbtree=1 / crf=20.0 / qcomp=0.80 / qpmin=0 / qpmax=69 / qpstep=4 / vbv_maxrate=62500 / vbv_bufsize=78125 / crf_max=0.0 / nal_hrd=none / filler=0 / ip_ratio=1.10 / aq=1:0.50
    Default                     : Yes
    Forced                      : Yes
    Color range                 : Limited
    Color primaries             : BT.709
    Transfer characteristics    : BT.709
    Matrix coefficients         : BT.709

    Audio #1
    ID                          : 2
    Format                      : AC-3
    Format/Info                 : Audio Coding 3
    Commercial name             : Dolby Digital
    Codec ID                    : A_AC3
    Duration                    : 1 h 41 min
    Bit rate mode               : Constant
    Bit rate                    : 192 kb/s
    Channel(s)                  : 2 channels
    Channel layout              : L R
    Sampling rate               : 48.0 kHz
    Frame rate                  : 31.250 FPS (1536 SPF)
    Bit depth                   : 16 bits
    Compression mode            : Lossy
    Stream size                 : 140 MiB (1%)
    Title                       : AC3_2.0_Bluray_Esp
    Language                    : Spanish
    Service kind                : Complete Main
    Default                     : Yes
    Forced                      : Yes

    Audio #2
    ID                          : 3
    Format                      : AC-3
    Format/Info                 : Audio Coding 3
    Commercial name             : Dolby Digital
    Codec ID                    : A_AC3
    Duration                    : 1 h 41 min
    Bit rate mode               : Constant
    Bit rate                    : 640 kb/s
    Channel(s)                  : 6 channels
    Channel layout              : L R C LFE Ls Rs
    Sampling rate               : 48.0 kHz
    Frame rate                  : 31.250 FPS (1536 SPF)
    Bit depth                   : 16 bits
    Compression mode            : Lossy
    Stream size                 : 466 MiB (3%)
    Title                       : AC3_5.1_Bluray_Eng
    Language                    : English
    Service kind                : Complete Main
    Default                     : No
    Forced                      : No

    Text #1
    ID                          : 4
    Format                      : PGS
    Muxing mode                 : zlib
    Codec ID                    : S_HDMV/PGS
    Codec ID/Info               : Picture based subtitle format used on BDs/HD-DVDs
    Duration                    : 1 h 41 min
    Bit rate                    : 26.2 kb/s
    Count of elements           : 2302
    Stream size                 : 19.0 MiB (0%)
    Title                       : Sub_Lat [PGS]
    Language                    : Spanish
    Default                     : No
    Forced                      : No

    Text #2
    ID                          : 5
    Format                      : PGS
    Muxing mode                 : zlib
    Codec ID                    : S_HDMV/PGS
    Codec ID/Info               : Picture based subtitle format used on BDs/HD-DVDs
    Duration                    : 1 h 41 min
    Bit rate                    : 32.8 kb/s
    Count of elements           : 2794
    Stream size                 : 23.7 MiB (0%)
    Title                       : Sub_Lat+Songs [PGS]
    Language                    : Spanish
    Default                     : No
    Forced                      : No

    Text #3
    ID                          : 6
    Format                      : PGS
    Muxing mode                 : zlib
    Codec ID                    : S_HDMV/PGS
    Codec ID/Info               : Picture based subtitle format used on BDs/HD-DVDs
    Duration                    : 1 h 41 min
    Bit rate                    : 31.7 kb/s
    Count of elements           : 2780
    Stream size                 : 23.0 MiB (0%)
    Title                       : Sub_Cast+Songs [PGS]
    Language                    : Spanish
    Default                     : No
    Forced                      : No

    Text #4
    ID                          : 7
    Format                      : PGS
    Muxing mode                 : zlib
    Codec ID                    : S_HDMV/PGS
    Codec ID/Info               : Picture based subtitle format used on BDs/HD-DVDs
    Duration                    : 1 h 39 min
    Bit rate                    : 38.4 kb/s
    Count of elements           : 2974
    Stream size                 : 27.4 MiB (0%)
    Title                       : Sub_Eng+Songs [PGS]
    Language                    : English
    Default                     : No
    Forced                      : No

    Text #5
    ID                          : 8
    Format                      : UTF-8
    Codec ID                    : S_TEXT/UTF8
    Codec ID/Info               : UTF-8 Plain Text
    Duration                    : 1 h 28 min
    Bit rate                    : 12 b/s
    Count of elements           : 246
    Stream size                 : 8.25 KiB (0%)
    Title                       : Sub_Forzados
    Language                    : Spanish
    Default                     : Yes
    Forced                      : Yes

    Text #6
    ID                          : 9
    Format                      : UTF-8
    Codec ID                    : S_TEXT/UTF8
    Codec ID/Info               : UTF-8 Plain Text
    Duration                    : 1 h 41 min
    Bit rate                    : 63 b/s
    Count of elements           : 1397
    Stream size                 : 47.3 KiB (0%)
    Title                       : Sub_Esp
    Language                    : Spanish
    Default                     : No
    Forced                      : No

    Menu
    00:00:00.000                : en:Main Title
    00:01:36.096                : en:Prologue
    00:01:56.116                : en:Dorothy's Dilemma
    00:05:49.349                : en:Over the Rainbow
    00:08:02.440                : en:Miss Gulch
    00:10:21.120                : en:Toto Escapes
    00:11:02.829                : en:Dorothy Runs Away
    00:12:47.767                : en:Crystal Gazing
    00:15:06.405                : en:"It's A Twister!"
    00:17:01.562                : en:Inside the Cyclone
    00:19:26.832                : en:Not in Kansas Anymore
    00:22:59.128                : en:Come Out, Come Out
    00:23:43.714                : en:It Really Was No Miracle
    00:24:52.991                : en:Ding! Dong! The Witch Is Dead!
    00:27:35.612                : en:The Lullaby League
    00:28:03.682                : en:The Lollipop Guild
    00:29:06.745                : en:"Who Killed My Sister?"
    00:31:05.906                : en:"What a Smell of Sulfur!"
    00:32:43.962                : en:Follow the Yellow Brick Road
    00:33:16.995                : en:You're Off to See the Wizard
    00:34:04.125                : en:Dorothy Meets the Scarecrow
    00:36:35.193                : en:If I Only Had a Brain
    00:38:48.826                : en:We're Off to See the Wizard
    00:39:16.854                : en:"Apples!"
    00:40:29.719                : en:"A Man Made Out of Tin!"
    00:42:49.567                : en:If I Only Had a Heart
    00:45:55.753                : en:"Wanna Play Ball?"
    00:47:00.693                : en:"To Oz? To Oz!"
    00:47:56.874                : en:"Lions and Tigers and Bears. Oh My!"
    00:49:05.192                : en:Meeting the Cowardly Lion
    00:52:09.626                : en:If I Only Had the Nerve
    00:52:51.418                : en:We're Off to See the Wizard
    00:53:54.231                : en:"Poppies Will Put Them to Sleep!"
    00:57:20.437                : en:Optimistic Voices
    00:58:23.875                : en:The Emerald City
    01:00:34.631                : en:The Merry Old Land of Oz
    01:02:14.397                : en:Surrender, Dorothy
    01:03:59.335                : en:If I Were the King of the Forest
    01:08:46.080                : en:Meeting the Wizard of Oz
    01:12:45.361                : en:The Haunted Forest
    01:14:31.467                : en:Attack of the Winged Monkeys
    01:16:11.567                : en:Dorothy in Captivity
    01:17:25.724                : en:Toto's Escape
    01:20:39.835                : en:March of the Winkies
    01:23:20.245                : en:The Rescue
    01:24:51.253                : en:"Seize Them!"
    01:25:55.442                : en:"I'm Melting!"
    01:26:59.631                : en:"The Wicked Witch Is Dead!"
    01:28:23.882                : en:The Wizard Revealed
    01:29:23.650                : en:Heroic Rewards
    01:33:48.623                : en:The Wizard's Balloon
    01:35:51.245                : en:Glinda Returns
    01:37:33.431                : en:Dorothy's Farewell
    01:38:40.123                : en:"There's No Place Like Home!"
    01:41:23.577                : en:Cast List

  • Peso: 15.6 GiB

Sinopsis

Descargar El Mago de Oz (1939) Full HD 1080p Latino. La huérfana Dorothy Gale vive una vida sencilla en Kansas con su tía Emma Clara Blandick, su tío Henry y tres pintorescos peones: Hunk (Ray Bolger), Zeke (Bert Lahr) y Hickory (Jack Haley). Un día la severa vecina Miss Gulch (Margaret Hamilton) es mordida por el perro de Dorothy, Toto. Miss Gulch se lo lleva, por orden del sheriff, a pesar de las apasionadas protestas de tía Emma y el tío Henry. Toto escapa y regresa junto a Dorothy, la cual se alegra momentáneamente, pero pronto se da cuenta de que Miss Gulch regresará. Decide llevarse a Toto y fugarse en busca de una vida mejor «en algún lugar sobre el arco iris».

Ficha técnica

Video trailer de la película

Enlaces de descarga

Rip de Bluray

Descargar El Mago de Oz (1939) Full HD 1080p Latino




Aportes de DPeliculasHDmega la pass es:dpeliculashdmega.org Aportes de CinemaniaHD la pass es:cinemaniahdd.com

Películas relacionadas

  • Paradise Highway (2022) PLACEBO Full HD 1080p Latino

    Paradise Highway (2022) PLACEBO Full HD 1080p Latino

    2022
    Paradise Highway (2022) PLACEBO Full HD 1080p Latino

    1h 55m 2022

    Descargar Paradise Highway (2022) PLACEBO Full HD 1080p Latino. Un camionero se ha visto obligado a pasar...

    Director: Anna Gutto

    Género: Crimen

    Actores: Xavier Scott Evans

  • Mar de sangre (2022) WEB-DL 1080p Latino

    Mar de sangre (2022) WEB-DL 1080p Latino

    2022
    Mar de sangre (2022) WEB-DL 1080p Latino

    1h 27m 2022

    Descargar Mar de sangre (2022) WEB-DL 1080p Latino. Un grupo de amigos que disfrutan de un fin de semana...

    Director: James Nunn

    Género: Acción

    Actores: Thomas Michael Flynn

  • Noche sin paz (2022) PLACEBO Full HD 1080p Latino

    Noche sin paz (2022) PLACEBO Full HD 1080p Latino

    2022
    Noche sin paz (2022) PLACEBO Full HD 1080p Latino

    1h 41m 2022

    Descargar Noche sin paz (2022) PLACEBO Full HD 1080p Latino. Cuando un equipo de mercenarios irrumpe...

    Director: Tyshana Hobson

    Género: Acción

    Actores: Yoon Cha-Lee

  • Groundhog Day (1993) REMUX 4K HDR Latino – CMHDD

    Groundhog Day (1993) REMUX 4K HDR Latino – CMHDD

    1993
    Groundhog Day (1993) REMUX 4K HDR Latino – CMHDD

    1h 41m 1993

    Phil, hombre del tiempo de una cadena de televisión, es enviado un año más a Punxstawnwey, a cubrir...

    Director: Sam Hoffman

    Género: Comedia

    Actores: Willie Garson

  • Si no despierto (2017) BD-USA REMUX 1080p Latino

    Si no despierto (2017) BD-USA REMUX 1080p Latino

    2017
    Si no despierto (2017) BD-USA REMUX 1080p Latino

    1h 39m 2017

    Descargar Si no despierto (2017) BD-USA REMUX 1080p Latino. En principio el 12 de febrero es sólo otro...

    Director: Ry Russo-Young

    Género: Drama

    Actores: Zoey Deutch

descargar El Mago de Oz (1939) Full HD 1080p Latino Full 1080p 1080p gratis, El Mago de Oz (1939) Full HD 1080p Latino Full 1080p mega 1 link, El Mago de Oz (1939) Full HD 1080p Latino Full 1080p pelicula completa, descargar El Mago de Oz (1939) Full HD 1080p Latino Full 1080p gratis en mega.

El Mago de Oz (1939) Full HD 1080p Latino pelicula full hd, El Mago de Oz (1939) Full HD 1080p Latino mega latino, El Mago de Oz (1939) Full HD 1080p Latino 4k latino, El Mago de Oz (1939) Full HD 1080p Latino pelicula completa, El Mago de Oz (1939) Full HD 1080p Latino descargar gratis, descargar El Mago de Oz (1939) Full HD 1080p Latino pelicula latino, El Mago de Oz (1939) Full HD 1080p Latino 1 link mega, El Mago de Oz (1939) Full HD 1080p Latino 1 link google drive, El Mago de Oz (1939) Full HD 1080p Latino hd 1080p latino.
Comentarios 0