El maestro del dinero (2016) Full 1080p Latino

756 vistas
1 estrella2 estrellas3 estrellas4 estrellas5 estrellas (1 votos, promedio: 4,00 de 5)
Cargando…

Información de El maestro del dinero (2016) Full 1080p Latino

Datos de la película

  • Calidad: Full 1080p
  • Audio: Español Latino AC3 5.1 BLURAY - Ingles DTS 5.1 BLURAY
  • Subtitulos: Español Latino PGS - Ingles PGS
  • Resolución: 1920X1080p
  • Formato: MKV
  • Codec: H.264
  • Encoder: Dracarys
  • Mediainfo: Clic para Mostrar Datos Ver
  • Format                                   : Matroska
    Format version                           : Version 4 / Version 2
    File size                                : 3.15 GiB
    Duration                                 : 1 h 38 min
    Overall bit rate                         : 4 572 kb/s
    Movie name                               : CinemaniaHDD.com
    Encoded date                             : UTC 2018-01-12 05:45:19 / UTC 2017-12-22T10:32:20Z
    Writing application                      : mkvmerge v15.0.0 ('Duel with the Devil') 64-bit
    Writing library                          : libebml v1.3.5 + libmatroska v1.4.5 / Lavf57.7.2

    Video
    ID                                       : 1
    Format                                   : AVC
    Format/Info                              : Advanced Video Codec
    Format profile                           : High@L4.1
    Format settings                          : CABAC / 4 Ref Frames
    Format settings, CABAC                   : Yes
    Format settings, RefFrames               : 4 frames
    Codec ID                                 : V_MPEG4/ISO/AVC
    Duration                                 : 1 h 38 min
    Bit rate                                 : 2 332 kb/s
    Width                                    : 1 920 pixels
    Height                                   : 1 080 pixels
    Display aspect ratio                     : 16:9
    Frame rate mode                          : Constant
    Frame rate                               : 23.976 (24000/1001) FPS
    Color space                              : YUV
    Chroma subsampling                       : 4:2:0
    Bit depth                                : 8 bits
    Scan type                                : Progressive
    Bits/(Pixel*Frame)                       : 0.047
    Stream size                              : 1.61 GiB (51%)
    Title                                    : El maestro del dinero (2016) Full 1080p Latino
    Writing library                          : x264 core 148 r2708 86b7198
    Encoding settings                        : cabac=1 / ref=4 / deblock=1:0:0 / analyse=0x3:0x133 / me=esa / subme=10 / psy=1 / psy_rd=1.00:0.00 / mixed_ref=1 / me_range=24 / chroma_me=1 / trellis=2 / 8x8dct=1 / cqm=0 / deadzone=21,11 / fast_pskip=1 / chroma_qp_offset=-2 / threads=34 / lookahead_threads=5 / sliced_threads=0 / nr=0 / decimate=1 / interlaced=0 / bluray_compat=0 / constrained_intra=0 / bframes=8 / b_pyramid=2 / b_adapt=2 / b_bias=0 / direct=3 / weightb=1 / open_gop=0 / weightp=2 / keyint=240 / keyint_min=24 / scenecut=40 / intra_refresh=0 / rc_lookahead=60 / rc=crf / mbtree=1 / crf=20.0 / qcomp=0.60 / qpmin=0 / qpmax=69 / qpstep=4 / vbv_maxrate=62500 / vbv_bufsize=78125 / crf_max=0.0 / nal_hrd=none / filler=0 / ip_ratio=1.40 / aq=1:1.00
    Language                                 : English
    Default                                  : Yes
    Forced                                   : No
    Color range                              : Limited
    Color primaries                          : BT.709
    Transfer characteristics                 : BT.709
    Matrix coefficients                      : BT.709
    Statistics Tags Issue                    : mkvmerge v15.0.0 ('Duel with the Devil') 64-bit 2018-01-12 05:45:19 / mkvmerge v15.0.0 ('Duel with the Devil') 64-bit 2018-01-12 05:45:19 / UTC 2017-12-22T10:32:20Z
    FromStats_BitRate                        : 2385171
    FromStats_Duration                       : 01:38:39.914000000
    FromStats_FrameCount                     : 141936
    FromStats_StreamSize                     : 1765001029

    Audio #1
    ID                                       : 2
    Format                                   : AC-3
    Format/Info                              : Audio Coding 3
    Format settings, Endianness              : Big
    Codec ID                                 : A_AC3
    Duration                                 : 1 h 38 min
    Bit rate mode                            : Constant
    Bit rate                                 : 640 kb/s
    Channel(s)                               : 6 channels
    Channel positions                        : Front: L C R, Side: L R, LFE
    Sampling rate                            : 48.0 kHz
    Frame rate                               : 31.250 FPS (1536 SPF)
    Bit depth                                : 16 bits
    Compression mode                         : Lossy
    Stream size                              : 452 MiB (14%)
    Language                                 : Spanish
    Service kind                             : Complete Main
    Default                                  : Yes
    Forced                                   : No
    Statistics Tags Issue                    : mkvmerge v15.0.0 ('Duel with the Devil') 64-bit 2018-01-12 05:45:19 / mkvmerge v15.0.0 ('Duel with the Devil') 64-bit 2018-01-12 05:45:19 / UTC 2017-12-22T10:32:20Z
    FromStats_BitRate                        : 640000
    FromStats_Duration                       : 01:38:39.936000000
    FromStats_FrameCount                     : 184998
    FromStats_StreamSize                     : 473594880

    Audio #2
    ID                                       : 3
    Format                                   : DTS
    Format/Info                              : Digital Theater Systems
    Mode                                     : 16
    Format settings, Endianness              : Big
    Codec ID                                 : A_DTS
    Duration                                 : 1 h 38 min
    Bit rate mode                            : Constant
    Bit rate                                 : 1 509 kb/s
    Channel(s)                               : 6 channels
    Channel positions                        : Front: L C R, Side: L R, LFE
    Sampling rate                            : 48.0 kHz
    Frame rate                               : 93.750 FPS (512 SPF)
    Bit depth                                : 24 bits
    Compression mode                         : Lossy
    Stream size                              : 1.04 GiB (33%)
    Language                                 : Spanish
    Default                                  : No
    Forced                                   : No
    Statistics Tags Issue                    : mkvmerge v15.0.0 ('Duel with the Devil') 64-bit 2018-01-12 05:45:19 / mkvmerge v15.0.0 ('Duel with the Devil') 64-bit 2018-01-12 05:45:19 / UTC 2017-12-22T10:32:20Z
    FromStats_BitRate                        : 1508999
    FromStats_Duration                       : 01:38:39.915000000
    FromStats_FrameCount                     : 554992
    FromStats_StreamSize                     : 1116643904

    Text #1
    ID                                       : 4
    Format                                   : PGS
    Muxing mode                              : zlib
    Codec ID                                 : S_HDMV/PGS
    Codec ID/Info                            : Picture based subtitle format used on BDs/HD-DVDs
    Language                                 : English
    Default                                  : No
    Forced                                   : No
    Statistics Tags Issue                    : mkvmerge v15.0.0 ('Duel with the Devil') 64-bit 2018-01-12 05:45:19 / mkvmerge v15.0.0 ('Duel with the Devil') 64-bit 2018-01-12 05:45:19 / UTC 2017-12-22T10:32:20Z
    FromStats_BitRate                        : 67173
    FromStats_Duration                       : 01:31:31.653000000
    FromStats_FrameCount                     : 3667
    FromStats_StreamSize                     : 46112008

    Text #2
    ID                                       : 5
    Format                                   : PGS
    Muxing mode                              : zlib
    Codec ID                                 : S_HDMV/PGS
    Codec ID/Info                            : Picture based subtitle format used on BDs/HD-DVDs
    Language                                 : Spanish
    Default                                  : No
    Forced                                   : No
    Statistics Tags Issue                    : mkvmerge v15.0.0 ('Duel with the Devil') 64-bit 2018-01-12 05:45:19 / mkvmerge v15.0.0 ('Duel with the Devil') 64-bit 2018-01-12 05:45:19 / UTC 2017-12-22T10:32:20Z
    FromStats_BitRate                        : 52605
    FromStats_Duration                       : 01:37:28.176000000
    FromStats_FrameCount                     : 3723
    FromStats_StreamSize                     : 38455548

    Menu
    00:00:00.000                             : :Chapter 1
    00:07:14.225                             : :Chapter 2
    00:12:38.800                             : :Chapter 3
    00:20:08.457                             : :Chapter 4
    00:24:32.179                             : :Chapter 5
    00:31:37.854                             : :Chapter 6
    00:39:52.181                             : :Chapter 7
    00:45:29.101                             : :Chapter 8
    00:51:37.511                             : :Chapter 9
    00:55:39.628                             : :Chapter 10
    00:58:43.020                             : :Chapter 11
    01:06:42.207                             : :Chapter 12
    01:10:27.682                             : :Chapter 13
    01:16:06.228                             : :Chapter 14
    01:19:55.165                             : :Chapter 15
    01:29:35.036                             : :Chapter 16

     

  • Peso: 3.15 GiB

Sinopsis

Lee Gates (George Clooney), un famoso presentador de televisión, es también uno de los principales gurús de Wall Street. Pero cuando el joven Kyle Budwell (Jack O’Connell), siguiendo sus consejos, pierde todo el dinero de su familia, decide secuestrar a Gates durante la emisión en directo de su programa.

Ficha técnica

Video trailer de la película

Enlaces de descarga

Rip de Bluray

Descargar El maestro del dinero (2016) Full 1080p Latino




Aportes de DPeliculasHDmega la pass es:dpeliculashdmega.org Aportes de CinemaniaHD la pass es:cinemaniahdd.com

Películas relacionadas

  • El Justiciero 2 (2018) Full 1080p Latino

    2018
    El Justiciero 2 (2018) Full 1080p Latino

    0.0 2h 0m 2018

    Descargar El Justiciero 2 (2018) Full 1080p Latino, Mega, Google Drive. Robert McCall (Denzel Washington)...

    Director: Donald Sparks

    Género: Acción

    Actores: Wesley Pereira

  • El Justiciero 2 (2018) 1080p Latino

    2018
    El Justiciero 2 (2018) 1080p Latino

    2.5 2h 0m 2018

    Descargar El Justiciero 2 (2018) 1080p Latino, Mega, Google Drive. Robert McCall (Denzel Washington)...

    Director: Donald Sparks

    Género: Acción

    Actores: Wesley Pereira

  • Kin (2018) Full 1080p Latino

    2018
    Kin (2018) Full 1080p Latino

    5.0 1h 42m 2018

    Perseguidos por un criminal vengativo (James Franco) y una banda de soldados sobrenaturales,​ un exconvicto...

    Director: Josh Baker

    Género: Acción

    Actores: Zoë Kravitz

  • Los increíbles 2 (2018) Full 1080p Latino

    2018
    Los increíbles 2 (2018) Full 1080p Latino

    5.0 1h 58m 2018

    Helen tiene que liderar una campaña para que los superhéroes regresen, mientras Bob vive su vida "normal"...

    Director: Seong-Young Kim

    Género: Acción

    Actores: Usher

Comentarios 1
  • Tio Higuera - 16 enero, 2018

    Gracias.