×

¿Problemas para descargar con Mozilla, EDGE? Deshabilita la opción "Abrir vinculos en una pestaña nueva" tal como lo muestra ésta imagen.

El Lobo Y El Leon (2021) PLACEBO Full HD 1080p Latino

21 vistas

Información de El Lobo Y El Leon (2021) PLACEBO Full HD 1080p Latino

Datos de la película

  • Calidad: Full 1080p
  • Audio: Español Latino AC3 5.1 WEB-DL - Ingles DTS 5.1 BLURAY
  • Subtitulos: Español Latino SRT- FORZADOS SRT
  • Resolución: 1920x1080p
  • Formato: MKV
  • Codec: H.264
  • Encoder: Melkor
  • Mediainfo: Clic para Mostrar Datos Ver
  • El Lobo Y El Leon (2021) PLACEBO 1080p Latino.mkv
    Format                      : Matroska
    Format version              : Version 4
    File size                   : 5.60 GiB
    Duration                    : 1 h 40 min
    Overall bit rate            : 7 963 kb/s
    Movie name                  : The Wolf and the Lion (2021) CinemaniaHDD.Net
    Encoded date                : UTC 2022-11-24 21:06:09
    Writing application         : mkvmerge v56.1.0 ('My Friend') 64-bit
    Writing library             : libebml v1.4.2 + libmatroska v1.6.4
    Attachments                 : CINEMANIAHD.png

    Video
    ID                          : 1
    Format                      : AVC
    Format/Info                 : Advanced Video Codec
    Format profile              : High@L4.1
    Format settings             : CABAC / 4 Ref Frames
    Format settings, CABAC      : Yes
    Format settings, Reference  : 4 frames
    Codec ID                    : V_MPEG4/ISO/AVC
    Duration                    : 1 h 40 min
    Bit rate                    : 6 003 kb/s
    Width                       : 1 920 pixels
    Height                      : 1 080 pixels
    Display aspect ratio        : 16:9
    Frame rate mode             : Constant
    Frame rate                  : 24.000 FPS
    Color space                 : YUV
    Chroma subsampling          : 4:2:0
    Bit depth                   : 8 bits
    Scan type                   : Progressive
    Bits/(Pixel*Frame)          : 0.121
    Stream size                 : 4.22 GiB (75%)
    Title                       : Full HD1080p [CinemaniaHDD]
    Writing library             : x264 core 163 r3059 b684ebe0
    Encoding settings           : cabac=1 / ref=4 / deblock=1:0:0 / analyse=0x3:0x133 / me=tesa / subme=11 / psy=1 / psy_rd=1.00:0.00 / mixed_ref=1 / me_range=24 / chroma_me=1 / trellis=2 / 8x8dct=1 / cqm=0 / deadzone=21,11 / fast_pskip=0 / chroma_qp_offset=-2 / threads=24 / lookahead_threads=6 / sliced_threads=0 / nr=0 / decimate=1 / interlaced=0 / bluray_compat=0 / constrained_intra=0 / bframes=16 / b_pyramid=2 / b_adapt=2 / b_bias=0 / direct=3 / weightb=1 / open_gop=0 / weightp=2 / keyint=240 / keyint_min=24 / scenecut=40 / intra_refresh=0 / rc_lookahead=60 / rc=crf / mbtree=1 / crf=19.0 / qcomp=0.60 / qpmin=0 / qpmax=69 / qpstep=4 / vbv_maxrate=62500 / vbv_bufsize=78125 / crf_max=0.0 / nal_hrd=none / filler=0 / ip_ratio=1.40 / aq=1:1.00
    Default                     : Yes
    Forced                      : Yes
    Color range                 : Limited
    Color primaries             : BT.709
    Transfer characteristics    : BT.709
    Matrix coefficients         : BT.709

    Audio #1
    ID                          : 2
    Format                      : AC-3
    Format/Info                 : Audio Coding 3
    Commercial name             : Dolby Digital
    Codec ID                    : A_AC3
    Duration                    : 1 h 40 min
    Bit rate mode               : Constant
    Bit rate                    : 448 kb/s
    Channel(s)                  : 6 channels
    Channel layout              : L R C LFE Ls Rs
    Sampling rate               : 48.0 kHz
    Frame rate                  : 31.250 FPS (1536 SPF)
    Compression mode            : Lossy
    Stream size                 : 323 MiB (6%)
    Title                       : Español Latino [CinemaniaHDD]
    Language                    : Spanish
    Service kind                : Complete Main
    Default                     : Yes
    Forced                      : Yes

    Audio #2
    ID                          : 3
    Format                      : DTS
    Format/Info                 : Digital Theater Systems
    Codec ID                    : A_DTS
    Duration                    : 1 h 40 min
    Bit rate mode               : Constant
    Bit rate                    : 1 509 kb/s
    Channel(s)                  : 6 channels
    Channel layout              : C L R Ls Rs LFE
    Sampling rate               : 48.0 kHz
    Frame rate                  : 93.750 FPS (512 SPF)
    Bit depth                   : 24 bits
    Compression mode            : Lossy
    Stream size                 : 1.06 GiB (19%)
    Title                       : Ingles [CinemaniaHDD]
    Language                    : English
    Default                     : No
    Forced                      : No

    Text #1
    ID                          : 4
    Format                      : UTF-8
    Codec ID                    : S_TEXT/UTF8
    Codec ID/Info               : UTF-8 Plain Text
    Duration                    : 1 h 36 min
    Bit rate                    : 1 b/s
    Count of elements           : 28
    Stream size                 : 781 Bytes (0%)
    Title                       : Forzados-SRT [CinemaniaHDD]
    Language                    : Spanish
    Default                     : Yes
    Forced                      : Yes

    Text #2
    ID                          : 5
    Format                      : UTF-8
    Codec ID                    : S_TEXT/UTF8
    Codec ID/Info               : UTF-8 Plain Text
    Duration                    : 1 h 36 min
    Bit rate                    : 38 b/s
    Count of elements           : 894
    Stream size                 : 27.4 KiB (0%)
    Title                       : Español-SRT [CinemaniaHDD]
    Language                    : Spanish
    Default                     : No
    Forced                      : No

    Text #3
    ID                          : 6
    Format                      : UTF-8
    Codec ID                    : S_TEXT/UTF8
    Codec ID/Info               : UTF-8 Plain Text
    Duration                    : 1 h 36 min
    Bit rate                    : 38 b/s
    Count of elements           : 1036
    Stream size                 : 27.2 KiB (0%)
    Title                       : Ingles [CinemaniaHDD]
    Language                    : English
    Default                     : No
    Forced                      : No

    Menu
    00:00:00.000                : Chapter 01
    00:07:33.667                : Chapter 02
    00:17:58.333                : Chapter 03
    00:25:33.167                : Chapter 04
    00:34:09.500                : Chapter 05
    00:40:43.292                : Chapter 06
    00:48:33.792                : Chapter 07
    00:58:22.000                : Chapter 08
    01:06:46.875                : Chapter 09
    01:13:19.708                : Chapter 10
    01:22:14.333                : Chapter 11
    01:29:53.958                : Chapter 12

  • Peso: 5.60 GiB

Sinopsis

Descargar El Lobo Y El Leon (2021) PLACEBO Full HD 1080p Latino. A la muerte de su abuelo, Alma, un joven pianista de 20 años, regresa a la casa de su infancia, perdida en una isla desierta de Canadá. Allí, todo cambia cuando un cachorro de lobo y un cachorro de león en peligro aparecen en su vida. Ella decide quedarse con ellos para salvarlos y sucede algo poco probable: crecen juntos y se quieren como hermanos. Pero su mundo ideal se desmorona cuando se descubre su secreto. El felino va a un circo y el lobo a un etnólogo. Esto es sin contar con la fuerza del amor que los une y les dará alas .

Ficha técnica

Video trailer de la película

Enlaces de descarga

Rip de Bluray

Descargar El Lobo Y El Leon (2021) PLACEBO Full HD 1080p Latino




Aportes de DPeliculasHDmega la pass es:dpeliculashdmega.org Aportes de CinemaniaHD la pass es:cinemaniahdd.com

Películas relacionadas

descargar El Lobo Y El Leon (2021) PLACEBO Full HD 1080p Latino Full 1080p 1080p gratis, El Lobo Y El Leon (2021) PLACEBO Full HD 1080p Latino Full 1080p mega 1 link, El Lobo Y El Leon (2021) PLACEBO Full HD 1080p Latino Full 1080p pelicula completa, descargar El Lobo Y El Leon (2021) PLACEBO Full HD 1080p Latino Full 1080p gratis en mega.

El Lobo Y El Leon (2021) PLACEBO Full HD 1080p Latino pelicula full hd, El Lobo Y El Leon (2021) PLACEBO Full HD 1080p Latino mega latino, El Lobo Y El Leon (2021) PLACEBO Full HD 1080p Latino 4k latino, El Lobo Y El Leon (2021) PLACEBO Full HD 1080p Latino pelicula completa, El Lobo Y El Leon (2021) PLACEBO Full HD 1080p Latino descargar gratis, descargar El Lobo Y El Leon (2021) PLACEBO Full HD 1080p Latino pelicula latino, El Lobo Y El Leon (2021) PLACEBO Full HD 1080p Latino 1 link mega, El Lobo Y El Leon (2021) PLACEBO Full HD 1080p Latino 1 link google drive, El Lobo Y El Leon (2021) PLACEBO Full HD 1080p Latino hd 1080p latino.
Comentarios 0