×

¿Problemas para descargar con Mozilla, EDGE? Deshabilita la opción "Abrir vinculos en una pestaña nueva" tal como lo muestra ésta imagen.

El Lobo Y El Leon (2021) HD 1080p Latino

15 vistas

Información de El Lobo Y El Leon (2021) HD 1080p Latino

Datos de la película

  • Calidad: 1080p
  • Audio: Español Latino AC3 5.1 WEB-DL - Ingles AC3 5.1 BLURAY
  • Subtitulos: Español Latino SRT- FORZADOS SRT
  • Resolución: 1920x804p
  • Formato: MKV
  • Codec: H.264
  • Encoder: Melkor
  • Mediainfo: Clic para Mostrar Datos Ver
  • El Lobo Y El Leon (2021) HD 1080p Latino.mkv
    Format                      : Matroska
    Format version              : Version 4
    File size                   : 3.12 GiB
    Duration                    : 1 h 40 min
    Overall bit rate            : 4 442 kb/s
    Movie name                  : The Wolf and the Lion (2021) CinemaniaHDD.Net
    Encoded date                : UTC 2022-11-24 21:06:44
    Writing application         : mkvmerge v56.1.0 ('My Friend') 64-bit
    Writing library             : libebml v1.4.2 + libmatroska v1.6.4
    Attachments                 : CINEMANIAHD.png

    Video
    ID                          : 1
    Format                      : AVC
    Format/Info                 : Advanced Video Codec
    Format profile              : High@L4.1
    Format settings             : CABAC / 5 Ref Frames
    Format settings, CABAC      : Yes
    Format settings, Reference  : 5 frames
    Codec ID                    : V_MPEG4/ISO/AVC
    Duration                    : 1 h 40 min
    Bit rate                    : 3 500 kb/s
    Width                       : 1 920 pixels
    Height                      : 804 pixels
    Display aspect ratio        : 2.40:1
    Frame rate mode             : Constant
    Frame rate                  : 24.000 FPS
    Color space                 : YUV
    Chroma subsampling          : 4:2:0
    Bit depth                   : 8 bits
    Scan type                   : Progressive
    Bits/(Pixel*Frame)          : 0.094
    Stream size                 : 2.49 GiB (80%)
    Title                       : HD1080p [CinemaniaHDD]
    Writing library             : x264 core 163 r3059 b684ebe0
    Encoding settings           : cabac=1 / ref=5 / deblock=1:-1:-1 / analyse=0x3:0x133 / me=umh / subme=9 / psy=1 / psy_rd=1.00:0.15 / mixed_ref=1 / me_range=16 / chroma_me=1 / trellis=2 / 8x8dct=1 / cqm=0 / deadzone=21,11 / fast_pskip=1 / chroma_qp_offset=-3 / threads=24 / lookahead_threads=2 / sliced_threads=0 / nr=0 / decimate=1 / interlaced=0 / bluray_compat=0 / constrained_intra=0 / bframes=3 / b_pyramid=2 / b_adapt=2 / b_bias=0 / direct=3 / weightb=1 / open_gop=0 / weightp=2 / keyint=240 / keyint_min=24 / scenecut=40 / intra_refresh=0 / rc_lookahead=60 / rc=abr / mbtree=1 / bitrate=3500 / ratetol=1.0 / qcomp=0.60 / qpmin=0 / qpmax=69 / qpstep=4 / vbv_maxrate=62500 / vbv_bufsize=78125 / nal_hrd=none / filler=0 / ip_ratio=1.40 / aq=1:1.00
    Default                     : Yes
    Forced                      : Yes
    Color range                 : Limited
    Color primaries             : BT.709
    Transfer characteristics    : BT.709
    Matrix coefficients         : BT.709

    Audio #1
    ID                          : 2
    Format                      : AC-3
    Format/Info                 : Audio Coding 3
    Commercial name             : Dolby Digital
    Codec ID                    : A_AC3
    Duration                    : 1 h 40 min
    Bit rate mode               : Constant
    Bit rate                    : 448 kb/s
    Channel(s)                  : 6 channels
    Channel layout              : L R C LFE Ls Rs
    Sampling rate               : 48.0 kHz
    Frame rate                  : 31.250 FPS (1536 SPF)
    Compression mode            : Lossy
    Delay relative to video     : -5 ms
    Stream size                 : 323 MiB (10%)
    Title                       : Español Latino [CinemaniaHDD]
    Language                    : Spanish
    Service kind                : Complete Main
    Default                     : Yes
    Forced                      : Yes

    Audio #2
    ID                          : 3
    Format                      : AC-3
    Format/Info                 : Audio Coding 3
    Commercial name             : Dolby Digital
    Codec ID                    : A_AC3
    Duration                    : 1 h 40 min
    Bit rate mode               : Constant
    Bit rate                    : 448 kb/s
    Channel(s)                  : 6 channels
    Channel layout              : L R C LFE Ls Rs
    Sampling rate               : 48.0 kHz
    Frame rate                  : 31.250 FPS (1536 SPF)
    Compression mode            : Lossy
    Delay relative to video     : -5 ms
    Stream size                 : 323 MiB (10%)
    Title                       : Ingles [CinemaniaHDD]
    Language                    : English
    Service kind                : Complete Main
    Default                     : No
    Forced                      : No

    Text #1
    ID                          : 4
    Format                      : UTF-8
    Codec ID                    : S_TEXT/UTF8
    Codec ID/Info               : UTF-8 Plain Text
    Duration                    : 1 h 36 min
    Bit rate                    : 1 b/s
    Count of elements           : 28
    Stream size                 : 781 Bytes (0%)
    Title                       : Forzados-SRT [CinemaniaHDD]
    Language                    : Spanish
    Default                     : Yes
    Forced                      : Yes

    Text #2
    ID                          : 5
    Format                      : UTF-8
    Codec ID                    : S_TEXT/UTF8
    Codec ID/Info               : UTF-8 Plain Text
    Duration                    : 1 h 36 min
    Bit rate                    : 38 b/s
    Count of elements           : 894
    Stream size                 : 27.4 KiB (0%)
    Title                       : Español-SRT [CinemaniaHDD]
    Language                    : Spanish
    Default                     : No
    Forced                      : No

    Text #3
    ID                          : 6
    Format                      : UTF-8
    Codec ID                    : S_TEXT/UTF8
    Codec ID/Info               : UTF-8 Plain Text
    Duration                    : 1 h 36 min
    Bit rate                    : 38 b/s
    Count of elements           : 1036
    Stream size                 : 27.2 KiB (0%)
    Title                       : Ingles [CinemaniaHDD]
    Language                    : English
    Default                     : No
    Forced                      : No

    Menu
    00:00:00.000                : Chapter 01
    00:07:33.667                : Chapter 02
    00:17:58.333                : Chapter 03
    00:25:33.167                : Chapter 04
    00:34:09.500                : Chapter 05
    00:40:43.292                : Chapter 06
    00:48:33.792                : Chapter 07
    00:58:22.000                : Chapter 08
    01:06:46.875                : Chapter 09
    01:13:19.708                : Chapter 10
    01:22:14.333                : Chapter 11
    01:29:53.958                : Chapter 12

  • Peso: 3.12 GiB

Sinopsis

Descargar El Lobo Y El Leon (2021) HD 1080p Latino. A la muerte de su abuelo, Alma, un joven pianista de 20 años, regresa a la casa de su infancia, perdida en una isla desierta de Canadá. Allí, todo cambia cuando un cachorro de lobo y un cachorro de león en peligro aparecen en su vida. Ella decide quedarse con ellos para salvarlos y sucede algo poco probable: crecen juntos y se quieren como hermanos. Pero su mundo ideal se desmorona cuando se descubre su secreto. El felino va a un circo y el lobo a un etnólogo. Esto es sin contar con la fuerza del amor que los une y les dará alas .

Ficha técnica

Video trailer de la película

Enlaces de descarga

Rip de Bluray

Descargar El Lobo Y El Leon (2021) HD 1080p Latino




Aportes de DPeliculasHDmega la pass es:dpeliculashdmega.org Aportes de CinemaniaHD la pass es:cinemaniahdd.com
Guardado en : Aventura , Familia , HD 1080p

Películas relacionadas

  • Scrooge: Cuento De Navidad (2022) NF WEB-DL 1080p Latino

    Scrooge: Cuento De Navidad (2022) NF WEB-DL 1080p Latino

    2022
    Scrooge: Cuento De Navidad (2022) NF WEB-DL 1080p Latino

    1h 37m 2022

    Descargar Scrooge Cuento De Navidad (2022) NF WEB-DL 1080p Latino. En la víspera de Navidad, el egoísta...

    Director: Stephen Donnelly

    Género: Animación

    Actores: Trevor Dion Nicholas

  • Super… ¿quién? (2021) HD 1080p Latino

    Super… ¿quién? (2021) HD 1080p Latino

    2022
    Super… ¿quién? (2021) HD 1080p Latino

    1h 22m 2022

    Descargar Super... ¿quién? (2021) HD 1080p Latino. Cedric (Philippe Lacheau) intenta ganarse la vida...

    Director: Philippe Lacheau

    Género: Acción

    Actores: Yves Yan

  • Trol (2022) NF WEB-DL 1080p Latino

    Trol (2022) NF WEB-DL 1080p Latino

    2022
    Trol (2022) NF WEB-DL 1080p Latino

    1h 43m 2022

    Las autoridades recurren a una audaz paleontóloga para evitar que un trol ancestral, al que ha despertado...

    Director: Sascha Marden

    Género: Acción

    Actores: Yusuf Toosh Ibra

  • Observada (2022) HD 1080p Latino

    Observada (2022) HD 1080p Latino

    2022
    Observada (2022) HD 1080p Latino

    1h 35m 2022

    Descargar Observada (2022) HD 1080p Latino. Una joven se muda a un nuevo apartamento con su prometido...

    Director: Chloe Okuno

    Género: HD 1080p

    Actores: Tudor Petruț

descargar El Lobo Y El Leon (2021) HD 1080p Latino 1080p 1080p gratis, El Lobo Y El Leon (2021) HD 1080p Latino 1080p mega 1 link, El Lobo Y El Leon (2021) HD 1080p Latino 1080p pelicula completa, descargar El Lobo Y El Leon (2021) HD 1080p Latino 1080p gratis en mega.

El Lobo Y El Leon (2021) HD 1080p Latino pelicula full hd, El Lobo Y El Leon (2021) HD 1080p Latino mega latino, El Lobo Y El Leon (2021) HD 1080p Latino 4k latino, El Lobo Y El Leon (2021) HD 1080p Latino pelicula completa, El Lobo Y El Leon (2021) HD 1080p Latino descargar gratis, descargar El Lobo Y El Leon (2021) HD 1080p Latino pelicula latino, El Lobo Y El Leon (2021) HD 1080p Latino 1 link mega, El Lobo Y El Leon (2021) HD 1080p Latino 1 link google drive, El Lobo Y El Leon (2021) HD 1080p Latino hd 1080p latino.
Comentarios 0