×

¿Problemas para descargar con Mozilla, EDGE? Deshabilita la opción "Abrir vinculos en una pestaña nueva" tal como lo muestra ésta imagen.

El libro de la vida (2014) HD 1080p Latino – CMHDD

452 vistas

Información de El libro de la vida (2014) HD 1080p Latino – CMHDD

Datos de la película

  • Calidad: 1080p
  • Audio: Español Latino AC3 5.1 BLURAY - Ingles AC3 5.1 BLURAY
  • Subtitulos: Español Latino SRT- FORZADOS SRT
  • Resolución: 1920x802p
  • Formato: MKV
  • Codec: H.264
  • Encoder: Dracarys
  • Mediainfo: Clic para Mostrar Datos Ver
  • Format                      : Matroska
    Format version              : Version 4
    File size                   : 2.98 GiB
    Duration                    : 1 h 35 min
    Overall bit rate            : 4 465 kb/s
    Movie name                  : El libro de la vida (2014) HD 1080p Latino - CMHDD
    Encoded date                : UTC 2020-07-03 22:20:26
    Writing application         : mkvmerge v46.0.0 ('No Deeper Escape') 64-bit
    Writing library             : libebml v1.3.10 + libmatroska v1.5.2

    Video
    ID                          : 1
    Format                      : AVC
    Format/Info                 : Advanced Video Codec
    Format profile              : High@L4.1
    Format settings             : CABAC / 5 Ref Frames
    Format settings, CABAC      : Yes
    Format settings, Reference  : 5 frames
    Codec ID                    : V_MPEG4/ISO/AVC
    Duration                    : 1 h 35 min
    Bit rate                    : 3 500 kb/s
    Width                       : 1 920 pixels
    Height                      : 802 pixels
    Display aspect ratio        : 2.40:1
    Frame rate mode             : Constant
    Frame rate                  : 23.976 (24000/1001) FPS
    Color space                 : YUV
    Chroma subsampling          : 4:2:0
    Bit depth                   : 8 bits
    Scan type                   : Progressive
    Bits/(Pixel*Frame)          : 0.095
    Stream size                 : 2.25 GiB (76%)
    Writing library             : x264 core 157 r2935 545de2f
    Encoding settings           : cabac=1 / ref=5 / deblock=1:0:0 / analyse=0x3:0x113 / me=hex / subme=8 / psy=1 / psy_rd=1.00:0.00 / mixed_ref=1 / me_range=16 / chroma_me=1 / trellis=2 / 8x8dct=1 / cqm=0 / deadzone=21,11 / fast_pskip=1 / chroma_qp_offset=-2 / threads=24 / lookahead_threads=4 / sliced_threads=0 / nr=0 / decimate=1 / interlaced=0 / bluray_compat=0 / constrained_intra=0 / bframes=3 / b_pyramid=2 / b_adapt=1 / b_bias=0 / direct=3 / weightb=1 / open_gop=0 / weightp=2 / keyint=240 / keyint_min=24 / scenecut=40 / intra_refresh=0 / rc_lookahead=50 / rc=abr / mbtree=1 / bitrate=3500 / ratetol=1.0 / qcomp=0.60 / qpmin=0 / qpmax=69 / qpstep=4 / vbv_maxrate=62500 / vbv_bufsize=78125 / nal_hrd=none / filler=0 / ip_ratio=1.40 / aq=1:1.00
    Default                     : Yes
    Forced                      : No
    Color range                 : Limited
    Color primaries             : BT.709
    Transfer characteristics    : BT.709
    Matrix coefficients         : BT.709

    Audio #1
    ID                          : 2
    Format                      : AC-3
    Format/Info                 : Audio Coding 3
    Commercial name             : Dolby Digital
    Codec ID                    : A_AC3
    Duration                    : 1 h 35 min
    Bit rate mode               : Constant
    Bit rate                    : 448 kb/s
    Channel(s)                  : 6 channels
    Channel layout              : L R C LFE Ls Rs
    Sampling rate               : 48.0 kHz
    Frame rate                  : 31.250 FPS (1536 SPF)
    Compression mode            : Lossy
    Stream size                 : 306 MiB (10%)
    Language                    : Spanish
    Service kind                : Complete Main
    Default                     : Yes
    Forced                      : No

    Audio #2
    ID                          : 3
    Format                      : AC-3
    Format/Info                 : Audio Coding 3
    Commercial name             : Dolby Digital
    Codec ID                    : A_AC3
    Duration                    : 1 h 35 min
    Bit rate mode               : Constant
    Bit rate                    : 640 kb/s
    Channel(s)                  : 6 channels
    Channel layout              : L R C LFE Ls Rs
    Sampling rate               : 48.0 kHz
    Frame rate                  : 31.250 FPS (1536 SPF)
    Compression mode            : Lossy
    Delay relative to video     : -5 ms
    Stream size                 : 437 MiB (14%)
    Language                    : English
    Service kind                : Complete Main
    Default                     : No
    Forced                      : No

    Text #1
    ID                          : 4
    Format                      : UTF-8
    Codec ID                    : S_TEXT/UTF8
    Codec ID/Info               : UTF-8 Plain Text
    Duration                    : 1 h 34 min
    Bit rate                    : 57 b/s
    Count of elements           : 1414
    Stream size                 : 40.0 KiB (0%)
    Language                    : Spanish
    Default                     : No
    Forced                      : No

    Text #2
    ID                          : 5
    Format                      : UTF-8
    Codec ID                    : S_TEXT/UTF8
    Codec ID/Info               : UTF-8 Plain Text
    Duration                    : 1 h 15 min
    Bit rate                    : 2 b/s
    Count of elements           : 62
    Stream size                 : 1.20 KiB (0%)
    Title                       : Forzados
    Language                    : Spanish
    Default                     : Yes
    Forced                      : No

    Menu
    00:00:00.000                : :Chapter 1
    00:02:58.053                : :Chapter 2
    00:05:39.631                : :Chapter 3
    00:08:35.015                : :Chapter 4
    00:12:08.478                : :Chapter 5
    00:15:07.698                : :Chapter 6
    00:19:24.246                : :Chapter 7
    00:22:20.089                : :Chapter 8
    00:26:08.150                : :Chapter 9
    00:28:59.571                : :Chapter 10
    00:33:02.147                : :Chapter 11
    00:37:25.952                : :Chapter 12
    00:41:06.839                : :Chapter 13
    00:43:14.634                : :Chapter 14
    00:47:02.486                : :Chapter 15
    00:50:52.216                : :Chapter 16
    00:53:13.232                : :Chapter 17
    00:56:30.178                : :Chapter 18
    01:00:16.279                : :Chapter 19
    01:03:57.292                : :Chapter 20
    01:06:48.379                : :Chapter 21
    01:09:09.896                : :Chapter 22
    01:11:52.016                : :Chapter 23
    01:15:53.215                : :Chapter 24
    01:18:52.770                : :Chapter 25
    01:21:13.410                : :Chapter 26
    01:23:33.509                : :Chapter 27
    01:27:11.893                : :Chapter 28

  • Peso: 2.98 GiB

Sinopsis

La película cuenta el viaje de Manolo, un joven torero que se debate entre cumplir con las expectativas de su familia o seguir su corazón y dedicarse a su verdadera pasión: la música. Antes de escoger el camino que seguirá, emprende una aventura recorriendo tres mundos fantásticos, donde tendrá que superar sus peores miedos. Producida por Guillermo del Toro.

Ficha técnica

Video trailer de la película

Enlaces de descarga

Rip de Bluray

Descargar El libro de la vida (2014) HD 1080p Latino – CMHDD




Aportes de DPeliculasHDmega la pass es:dpeliculashdmega.org Aportes de CinemaniaHD la pass es:cinemaniahdd.com

Películas relacionadas

descargar El libro de la vida (2014) HD 1080p Latino – CMHDD 1080p 1080p gratis, El libro de la vida (2014) HD 1080p Latino – CMHDD 1080p mega 1 link, El libro de la vida (2014) HD 1080p Latino – CMHDD 1080p pelicula completa, descargar El libro de la vida (2014) HD 1080p Latino – CMHDD 1080p gratis en mega.

El libro de la vida (2014) HD 1080p Latino – CMHDD pelicula full hd, El libro de la vida (2014) HD 1080p Latino – CMHDD mega latino, El libro de la vida (2014) HD 1080p Latino – CMHDD 4k latino, El libro de la vida (2014) HD 1080p Latino – CMHDD pelicula completa, El libro de la vida (2014) HD 1080p Latino – CMHDD descargar gratis, descargar El libro de la vida (2014) HD 1080p Latino – CMHDD pelicula latino, El libro de la vida (2014) HD 1080p Latino – CMHDD 1 link mega, El libro de la vida (2014) HD 1080p Latino – CMHDD 1 link google drive, El libro de la vida (2014) HD 1080p Latino – CMHDD hd 1080p latino.
Comentarios 0