×

¿Problemas para descargar con Mozilla, EDGE? Deshabilita la opción "Abrir vinculos en una pestaña nueva" tal como lo muestra ésta imagen.

El libro de Boba Fett (2021) Temporada 1 WEB-DL 1080p Latino

37.685 vistas

Información de El libro de Boba Fett (2021) Temporada 1 WEB-DL 1080p Latino

Datos de la película

  • Calidad: WEBDL
  • Audio: Se especifica abajo de la Sinopsis
  • Subtitulos: Español Latino SRT - Ingles SRT
  • Resolución: 1920x1080p
  • Formato: MKV
  • Codec: H.264
  • Encoder: CinemaniaHD
  • Mediainfo: Clic para Mostrar Datos Ver
  • El libro de Boba Fett S01E01 (2021) D+ Web-DL 1080p Latino.mkv
    Format                      : Matroska
    Format version              : Version 4
    File size                   : 1.90 GiB
    Duration                    : 37 min 40 s
    Overall bit rate mode       : Variable
    Overall bit rate            : 7 231 kb/s
    Movie name                  : CinemaniaHDD.Net
    Encoded date                : UTC 2022-01-04 06:02:36
    Writing application         : mkvmerge v56.1.0 ('My Friend') 64-bit
    Writing library             : libebml v1.4.2 + libmatroska v1.6.4
    Attachments                 : CINEMANIAHD.png

    Video
    ID                          : 1
    Format                      : AVC
    Format/Info                 : Advanced Video Codec
    Format profile              : High@L4
    Format settings             : CABAC / 4 Ref Frames
    Format settings, CABAC      : Yes
    Format settings, Reference  : 4 frames
    Codec ID                    : V_MPEG4/ISO/AVC
    Duration                    : 37 min 40 s
    Bit rate mode               : Variable
    Bit rate                    : 6 205 kb/s
    Maximum bit rate            : 12.7 Mb/s
    Width                       : 1 920 pixels
    Height                      : 1 080 pixels
    Display aspect ratio        : 16:9
    Frame rate mode             : Constant
    Frame rate                  : 24.000 FPS
    Color space                 : YUV
    Chroma subsampling          : 4:2:0
    Bit depth                   : 8 bits
    Scan type                   : Progressive
    Bits/(Pixel*Frame)          : 0.125
    Stream size                 : 1.63 GiB (86%)
    Title                       : WEB HD1080p [CinemaniaHDD]
    Default                     : Yes
    Forced                      : No
    Color range                 : Limited
    Color primaries             : BT.709
    Transfer characteristics    : BT.709
    Matrix coefficients         : BT.709

    Audio #1
    ID                          : 2
    Format                      : E-AC-3
    Format/Info                 : Enhanced AC-3
    Commercial name             : Dolby Digital Plus
    Codec ID                    : A_EAC3
    Duration                    : 37 min 40 s
    Bit rate mode               : Constant
    Bit rate                    : 256 kb/s
    Channel(s)                  : 6 channels
    Channel layout              : L R C LFE Ls Rs
    Sampling rate               : 48.0 kHz
    Frame rate                  : 31.250 FPS (1536 SPF)
    Compression mode            : Lossy
    Delay relative to video     : 31 ms
    Stream size                 : 69.0 MiB (4%)
    Title                       : Español Latino [CinemaniaHDD]
    Language                    : Spanish
    Service kind                : Complete Main
    Default                     : Yes
    Forced                      : No

    Audio #2
    ID                          : 3
    Format                      : E-AC-3 JOC
    Format/Info                 : Enhanced AC-3 with Joint Object Coding
    Commercial name             : Dolby Digital Plus with Dolby Atmos
    Codec ID                    : A_EAC3
    Duration                    : 37 min 40 s
    Bit rate mode               : Constant
    Bit rate                    : 768 kb/s
    Channel(s)                  : 6 channels
    Channel layout              : L R C LFE Ls Rs
    Sampling rate               : 48.0 kHz
    Frame rate                  : 31.250 FPS (1536 SPF)
    Compression mode            : Lossy
    Stream size                 : 207 MiB (11%)
    Title                       : Ingles [CinemaniaHDD]
    Language                    : English
    Service kind                : Complete Main
    Default                     : No
    Forced                      : No
    Complexity index            : 16
    Number of dynamic objects   : 15
    Bed channel count           : 1 channel
    Bed channel configuration   : LFE

    Text #1
    ID                          : 4
    Format                      : UTF-8
    Codec ID                    : S_TEXT/UTF8
    Codec ID/Info               : UTF-8 Plain Text
    Duration                    : 9 s 584 ms
    Bit rate                    : 55 b/s
    Count of elements           : 2
    Stream size                 : 66.0 Bytes (0%)
    Title                       : Forzados-SRT [CinemaniaHDD]
    Language                    : Spanish
    Default                     : Yes
    Forced                      : No

    Text #2
    ID                          : 5
    Format                      : UTF-8
    Codec ID                    : S_TEXT/UTF8
    Codec ID/Info               : UTF-8 Plain Text
    Duration                    : 34 min 43 s
    Bit rate                    : 17 b/s
    Count of elements           : 146
    Stream size                 : 4.52 KiB (0%)
    Title                       : Español-SRT [CinemaniaHDD]
    Language                    : Spanish
    Default                     : No
    Forced                      : No

    Text #3
    ID                          : 6
    Format                      : UTF-8
    Codec ID                    : S_TEXT/UTF8
    Codec ID/Info               : UTF-8 Plain Text
    Duration                    : 28 min 30 s
    Bit rate                    : 22 b/s
    Count of elements           : 133
    Stream size                 : 4.60 KiB (0%)
    Title                       : Ingles-SRT [CinemaniaHDD]
    Language                    : English
    Default                     : No
    Forced                      : No

    Menu
    00:36:16.417                : Credits

  • Peso: 1.7 GiB - 2.9 GiB Aprox. C/U | 15.5 GiB Total

Sinopsis

Descargar El libro de Boba Fett (2021) Temporada 1 WEB-DL 1080p Latino. Lejos de su perfil de cazarrecompensas, Boba Fett se reinventa en Tatooine junto a Fennec Shand. El legendario cazarrecompensas Boba Fett y la mercenaria Fennec Shand navegan por el lado criminal de la galaxia de regreso a las arenas de Tatooine para reclamar su derecho al territorio que solía gobernar Jabba el Hutt y su sindicato del crimen.

Audio Español Latino EAC3 5.1 D+ – Ingles EAC3 5.1 D+
7/7 Capitulos Disponibles!!

Ficha técnica

Video trailer de la película

Enlaces de descarga

Rip de Bluray

Descargar El libro de Boba Fett (2021) Temporada 1 WEB-DL 1080p Latino




Aportes de DPeliculasHDmega la pass es:dpeliculashdmega.org Aportes de CinemaniaHD la pass es:cinemaniahdd.com

Películas relacionadas

descargar El libro de Boba Fett (2021) Temporada 1 WEB-DL 1080p Latino WEBDL 1080p gratis, El libro de Boba Fett (2021) Temporada 1 WEB-DL 1080p Latino WEBDL mega 1 link, El libro de Boba Fett (2021) Temporada 1 WEB-DL 1080p Latino WEBDL serie completa, descargar El libro de Boba Fett (2021) Temporada 1 WEB-DL 1080p Latino WEBDL gratis en mega.

El libro de Boba Fett (2021) Temporada 1 WEB-DL 1080p Latino pelicula full hd, El libro de Boba Fett (2021) Temporada 1 WEB-DL 1080p Latino mega latino, El libro de Boba Fett (2021) Temporada 1 WEB-DL 1080p Latino 4k latino, El libro de Boba Fett (2021) Temporada 1 WEB-DL 1080p Latino pelicula completa, El libro de Boba Fett (2021) Temporada 1 WEB-DL 1080p Latino descargar gratis, descargar El libro de Boba Fett (2021) Temporada 1 WEB-DL 1080p Latino pelicula latino, El libro de Boba Fett (2021) Temporada 1 WEB-DL 1080p Latino 1 link mega, El libro de Boba Fett (2021) Temporada 1 WEB-DL 1080p Latino 1 link google drive, El libro de Boba Fett (2021) Temporada 1 WEB-DL 1080p Latino hd 1080p latino.
Comentarios 0