×

¿Problemas para descargar con Mozilla, EDGE? Deshabilita la opción "Abrir vinculos en una pestaña nueva" tal como lo muestra ésta imagen.

El laberinto del Fauno (2006) 4K UHD HDR Castellano

2.100 vistas

Información de El laberinto del Fauno (2006) 4K UHD HDR Castellano

Datos de la película

  • Calidad: 4K HDR
  • Audio: Se especifica abajo de la Sinopsis
  • Subtitulos: Español PGS - Ingles PGS
  • Resolución: 3840x2076p
  • Formato: MKV
  • Codec: HEVC
  • Encoder: CinefiloCool
  • Mediainfo: Clic para Mostrar Datos Ver
  • El Laberinto Del Fauno (2006) UHD HDR Castellano-CMHDD.mkv
    Format                      : Matroska
    Format version              : Version 4
    File size                   : 21.0 GiB
    Duration                    : 1 h 59 min
    Overall bit rate mode       : Variable
    Overall bit rate            : 25.2 Mb/s
    Movie name                  : CinemaniaHDD.Net
    Encoded date                : UTC 2019-10-08 01:17:09
    Writing application         : mkvmerge v38.0.0 ('The Silent Type') 64-bit
    Writing library             : libebml v1.3.9 + libmatroska v1.5.2
    Attachments                 : CINEMANIAHD.png

    Video
    ID                          : 1
    Format                      : HEVC
    Format/Info                 : High Efficiency Video Coding
    Commercial name             : HDR10
    Format profile              : Main 10@L5.1@High
    Codec ID                    : V_MPEGH/ISO/HEVC
    Duration                    : 1 h 59 min
    Bit rate                    : 19.4 Mb/s
    Width                       : 3 840 pixels
    Height                      : 2 076 pixels
    Display aspect ratio        : 1.85:1
    Frame rate mode             : Constant
    Frame rate                  : 23.976 (24000/1001) FPS
    Color space                 : YUV
    Chroma subsampling          : 4:2:0 (Type 2)
    Bit depth                   : 10 bits
    Bits/(Pixel*Frame)          : 0.101
    Stream size                 : 16.1 GiB (77%)
    Title                       : 2160p HDR [Bluray]
    Writing library             : x265 3.1+20-913823aa15cd:[Windows][GCC 6.3.0][64 bit] 10bit
    Encoding settings           : cpuid=1111039 / frame-threads=4 / numa-pools=20 / wpp / no-pmode / no-pme / no-psnr / no-ssim / log-level=2 / input-csp=1 / input-res=3840x2076 / interlace=0 / total-frames=171432 / level-idc=51 / high-tier=1 / uhd-bd=0 / ref=4 / no-allow-non-conformance / repeat-headers / annexb / aud / hrd / info / hash=0 / no-temporal-layers / no-open-gop / min-keyint=1 / keyint=24 / gop-lookahead=0 / bframes=4 / b-adapt=2 / b-pyramid / bframe-bias=0 / rc-lookahead=25 / lookahead-slices=4 / scenecut=40 / radl=0 / no-splice / no-intra-refresh / ctu=64 / min-cu-size=8 / rect / no-amp / max-tu-size=32 / tu-inter-depth=1 / tu-intra-depth=1 / limit-tu=0 / rdoq-level=2 / dynamic-rd=0.00 / no-ssim-rd / signhide / no-tskip / nr-intra=0 / nr-inter=0 / no-constrained-intra / no-strong-intra-smoothing / max-merge=3 / limit-refs=3 / limit-modes / me=3 / subme=3 / merange=57 / temporal-mvp / no-hme / weightp / no-weightb / no-analyze-src-pics / deblock=-3:-3 / no-sao / no-sao-non-deblock / rd=4 / selective-sao=0 / no-early-skip / rskip / no-fast-intra / no-tskip-fast / no-cu-lossless / no-b-intra / no-splitrd-skip / rdpenalty=0 / psy-rd=2.00 / psy-rdoq=1.00 / no-rd-refine / no-lossless / cbqpoffs=0 / crqpoffs=0 / rc=crf / crf=17.0 / qcomp=0.60 / qpstep=4 / stats-write=0 / stats-read=0 / vbv-maxrate=160000 / vbv-bufsize=160000 / vbv-init=0.9 / crf-max=0.0 / crf-min=0.0 / ipratio=1.40 / pbratio=1.30 / aq-mode=1 / aq-strength=1.00 / cutree / zone-count=0 / no-strict-cbr / qg-size=32 / no-rc-grain / qpmax=69 / qpmin=0 / no-const-vbv / sar=1 / overscan=0 / videoformat=5 / range=0 / colorprim=9 / transfer=16 / colormatrix=9 / chromaloc=1 / chromaloc-top=2 / chromaloc-bottom=2 / display-window=0 / master-display=G(13250,34500)B(7500,3000)R(34000,16000)WP(15635,16450)L(40000000,50) / cll=761,46 / min-luma=0 / max-luma=1023 / log2-max-poc-lsb=8 / vui-timing-info / vui-hrd-info / slices=1 / no-opt-qp-pps / no-opt-ref-list-length-pps / no-multi-pass-opt-rps / scenecut-bias=0.05 / no-opt-cu-delta-qp / no-aq-motion / hdr / hdr-opt / no-dhdr10-opt / no-idr-recovery-sei / analysis-reuse-level=5 / scale-factor=0 / refine-intra=0 / refine-inter=0 / refine-mv=1 / refine-ctu-distortion=0 / no-limit-sao / ctu-info=0 / no-lowpass-dct / refine-analysis-type=0 / copy-pic=1 / max-ausize-factor=1.0 / no-dynamic-refine / no-single-sei / no-hevc-aq / no-svt / no-field / qp-adaptation-range=1.00
    Default                     : Yes
    Forced                      : Yes
    Color range                 : Limited
    Color primaries             : BT.2020
    Transfer characteristics    : PQ
    Matrix coefficients         : BT.2020 non-constant
    Mastering display color pri : Display P3
    Mastering display luminance : min: 0.0050 cd/m2, max: 4000 cd/m2
    Maximum Content Light Level : 761 cd/m2
    Maximum Frame-Average Light : 46 cd/m2

    Audio #1
    ID                          : 2
    Format                      : DTS XLL
    Format/Info                 : Digital Theater Systems
    Commercial name             : DTS-HD Master Audio
    Codec ID                    : A_DTS
    Duration                    : 1 h 59 min
    Bit rate mode               : Variable
    Bit rate                    : 5 175 kb/s
    Channel(s)                  : 8 channels
    Channel layout              : C L R LFE Lb Rb Lss Rss
    Sampling rate               : 48.0 kHz
    Frame rate                  : 93.750 FPS (512 SPF)
    Bit depth                   : 24 bits
    Compression mode            : Lossless
    Stream size                 : 4.31 GiB (21%)
    Title                       : DTS-HD_7.1_Bluray_Cast
    Language                    : Spanish
    Default                     : Yes
    Forced                      : Yes

    Audio #2
    ID                          : 3
    Format                      : AC-3
    Format/Info                 : Audio Coding 3
    Commercial name             : Dolby Digital
    Codec ID                    : A_AC3
    Duration                    : 1 h 59 min
    Bit rate mode               : Constant
    Bit rate                    : 640 kb/s
    Channel(s)                  : 6 channels
    Channel layout              : L R C LFE Ls Rs
    Sampling rate               : 48.0 kHz
    Frame rate                  : 31.250 FPS (1536 SPF)
    Bit depth                   : 16 bits
    Compression mode            : Lossy
    Stream size                 : 546 MiB (3%)
    Title                       : AC3_5.1_Bluray_Cast
    Language                    : Spanish
    Service kind                : Complete Main
    Default                     : No
    Forced                      : No

    Text #1
    ID                          : 4
    Format                      : PGS
    Muxing mode                 : zlib
    Codec ID                    : S_HDMV/PGS
    Codec ID/Info               : Picture based subtitle format used on BDs/HD-DVDs
    Duration                    : 1 h 57 min
    Bit rate                    : 16.6 kb/s
    Count of elements           : 1768
    Stream size                 : 13.9 MiB (0%)
    Title                       : Sub_Esp [PGS]
    Language                    : Spanish
    Default                     : No
    Forced                      : No

    Text #2
    ID                          : 5
    Format                      : PGS
    Muxing mode                 : zlib
    Codec ID                    : S_HDMV/PGS
    Codec ID/Info               : Picture based subtitle format used on BDs/HD-DVDs
    Duration                    : 1 h 51 min
    Bit rate                    : 15.8 kb/s
    Count of elements           : 1774
    Stream size                 : 12.6 MiB (0%)
    Title                       : Sub_Eng [PGS]
    Language                    : English
    Default                     : No
    Forced                      : No

    Menu
    00:00:00.000                : :Chapter 01
    00:05:51.476                : :Chapter 02
    00:11:30.398                : :Chapter 03
    00:14:52.809                : :Chapter 04
    00:18:10.256                : :Chapter 05
    00:24:52.449                : :Chapter 06
    00:31:13.288                : :Chapter 07
    00:38:34.062                : :Chapter 08
    00:42:56.949                : :Chapter 09
    00:46:17.441                : :Chapter 10
    00:48:17.186                : :Chapter 11
    00:55:38.627                : :Chapter 12
    01:02:36.586                : :Chapter 13
    01:07:57.824                : :Chapter 14
    01:12:54.662                : :Chapter 15
    01:16:45.017                : :Chapter 16
    01:21:44.399                : :Chapter 17
    01:25:12.774                : :Chapter 18
    01:31:28.692                : :Chapter 19
    01:36:28.616                : :Chapter 20
    01:43:04.762                : :Chapter 21
    01:52:20.067                : :Chapter 22

  • Peso: 21.0 GiB

Sinopsis

Descargar El laberinto del Fauno (2006) 4K UHD HDR Castellano. Año 1944, tras la victoria de Franco. La niña Ofelia (Ivana Baquero) y su madre, Carmen (Ariadna Gil), convaleciente a causa de un avanzado estado de gestación, se trasladan hasta un pequeño pueblo en el que se encuentra destacado el nuevo marido de ésta, Vidal (Sergi López), un cruel capitán del ejército franquista por el que la niña no siente ningún afecto. La misión de Vidal es acabar con los últimos vestigios de la resistencia republicana que permanecen escondidos en los montes de la zona.

Audio Español Castellano DTS-HD 7.1 + AC3 5.1 Bluray

Ficha técnica

Video trailer de la película

Enlaces de descarga

Rip de Bluray

Descargar El laberinto del Fauno (2006) 4K UHD HDR Castellano




Aportes de DPeliculasHDmega la pass es:dpeliculashdmega.org Aportes de CinemaniaHD la pass es:cinemaniahdd.com
Guardado en : 4K HDR , 4K UHD , Bélica , Castellano , Drama , Fantasía

Películas relacionadas

descargar El laberinto del Fauno (2006) 4K UHD HDR Castellano 4K HDR 1080p gratis, El laberinto del Fauno (2006) 4K UHD HDR Castellano 4K HDR mega 1 link, El laberinto del Fauno (2006) 4K UHD HDR Castellano 4K HDR pelicula completa, descargar El laberinto del Fauno (2006) 4K UHD HDR Castellano 4K HDR gratis en mega.

El laberinto del Fauno (2006) 4K UHD HDR Castellano pelicula full hd, El laberinto del Fauno (2006) 4K UHD HDR Castellano mega latino, El laberinto del Fauno (2006) 4K UHD HDR Castellano 4k latino, El laberinto del Fauno (2006) 4K UHD HDR Castellano pelicula completa, El laberinto del Fauno (2006) 4K UHD HDR Castellano descargar gratis, descargar El laberinto del Fauno (2006) 4K UHD HDR Castellano pelicula latino, El laberinto del Fauno (2006) 4K UHD HDR Castellano 1 link mega, El laberinto del Fauno (2006) 4K UHD HDR Castellano 1 link google drive, El laberinto del Fauno (2006) 4K UHD HDR Castellano hd 1080p latino.
Comentarios 0