×

¿Problemas para descargar con Mozilla, EDGE? Deshabilita la opción "Abrir vinculos en una pestaña nueva" tal como lo muestra ésta imagen.

El Karate Kid 4 (1994) HD 1080p Latino

463 vistas

Información de El Karate Kid 4 (1994) HD 1080p Latino

Datos de la película

  • Calidad: 1080p
  • Audio: Se especifica abajo de la Sinopsis
  • Subtitulos: Español Latino SRT- FORZADOS SRT
  • Resolución: 1920x1040
  • Formato: MKV
  • Codec: H.264
  • Encoder: cinemaniahdd
  • Mediainfo: Clic para Mostrar Datos Ver
  • El Karate Kid 4, La Nueva Aventura (1994) HD 1080p Latino [CNMNHDD].mkv
    Format                      : Matroska
    Format version              : Version 4
    File size                   : 3.11 GiB
    Duration                    : 1 h 47 min
    Overall bit rate            : 4 146 kb/s
    Movie name                  : El Karate Kid 4, La Nueva Aventura (1994) HD - CinemaniaHDD.Net
    Encoded date                : UTC 2020-09-13 19:54:03
    Writing application         : mkvmerge v46.0.0 ('No Deeper Escape') 64-bit
    Writing library             : libebml v1.3.10 + libmatroska v1.5.2

    Video
    ID                          : 1
    Format                      : AVC
    Format/Info                 : Advanced Video Codec
    Format profile              : Main@L4
    Format settings             : CABAC / 4 Ref Frames
    Format settings, CABAC      : Yes
    Format settings, Reference  : 4 frames
    Codec ID                    : V_MPEG4/ISO/AVC
    Duration                    : 1 h 47 min
    Bit rate                    : 3 500 kb/s
    Width                       : 1 920 pixels
    Height                      : 1 038 pixels
    Display aspect ratio        : 1.85:1
    Frame rate mode             : Constant
    Frame rate                  : 23.976 (24000/1001) FPS
    Color space                 : YUV
    Chroma subsampling          : 4:2:0
    Bit depth                   : 8 bits
    Scan type                   : Progressive
    Bits/(Pixel*Frame)          : 0.073
    Stream size                 : 2.58 GiB (83%)
    Title                       : CinemaniaHDD
    Writing library             : x264 core 157 r2935 545de2f
    Encoding settings           : cabac=1 / ref=4 / deblock=1:0:0 / analyse=0x1:0x111 / me=hex / subme=8 / psy=1 / psy_rd=1.00:0.00 / mixed_ref=1 / me_range=16 / chroma_me=1 / trellis=2 / 8x8dct=0 / cqm=0 / deadzone=21,11 / fast_pskip=1 / chroma_qp_offset=-2 / threads=24 / lookahead_threads=4 / sliced_threads=0 / nr=0 / decimate=1 / interlaced=0 / bluray_compat=0 / constrained_intra=0 / bframes=3 / b_pyramid=2 / b_adapt=1 / b_bias=0 / direct=3 / weightb=1 / open_gop=0 / weightp=2 / keyint=240 / keyint_min=24 / scenecut=40 / intra_refresh=0 / rc_lookahead=50 / rc=abr / mbtree=1 / bitrate=3500 / ratetol=1.0 / qcomp=0.60 / qpmin=0 / qpmax=69 / qpstep=4 / vbv_maxrate=20000 / vbv_bufsize=25000 / nal_hrd=none / filler=0 / ip_ratio=1.40 / aq=1:1.00
    Default                     : Yes
    Forced                      : No
    Color range                 : Limited
    Color primaries             : BT.709
    Transfer characteristics    : BT.709
    Matrix coefficients         : BT.709

    Audio #1
    ID                          : 2
    Format                      : AC-3
    Format/Info                 : Audio Coding 3
    Commercial name             : Dolby Digital
    Codec ID                    : A_AC3
    Duration                    : 1 h 47 min
    Bit rate mode               : Constant
    Bit rate                    : 256 kb/s
    Channel(s)                  : 2 channels
    Channel layout              : L R
    Sampling rate               : 48.0 kHz
    Frame rate                  : 31.250 FPS (1536 SPF)
    Compression mode            : Lossy
    Delay relative to video     : -5 ms
    Stream size                 : 197 MiB (6%)
    Title                       : Español latino [CinemaniaHDD]
    Language                    : Spanish
    Service kind                : Complete Main
    Default                     : Yes
    Forced                      : No

    Audio #2
    ID                          : 3
    Format                      : AC-3
    Format/Info                 : Audio Coding 3
    Commercial name             : Dolby Digital
    Codec ID                    : A_AC3
    Duration                    : 1 h 47 min
    Bit rate mode               : Constant
    Bit rate                    : 448 kb/s
    Channel(s)                  : 6 channels
    Channel layout              : L R C LFE Ls Rs
    Sampling rate               : 48.0 kHz
    Frame rate                  : 31.250 FPS (1536 SPF)
    Compression mode            : Lossy
    Delay relative to video     : -5 ms
    Stream size                 : 344 MiB (11%)
    Title                       : Inglés [CinemaniaHDD]
    Language                    : English
    Service kind                : Complete Main
    Default                     : No
    Forced                      : No

    Text #1
    ID                          : 4
    Format                      : UTF-8
    Codec ID                    : S_TEXT/UTF8
    Codec ID/Info               : UTF-8 Plain Text
    Duration                    : 55 min 9 s
    Bit rate                    : 0 b/s
    Count of elements           : 2
    Stream size                 : 29.0 Bytes (0%)
    Title                       : Forzados [CinemaniaHDD]
    Language                    : Spanish
    Default                     : Yes
    Forced                      : Yes

    Text #2
    ID                          : 5
    Format                      : UTF-8
    Codec ID                    : S_TEXT/UTF8
    Codec ID/Info               : UTF-8 Plain Text
    Duration                    : 1 h 40 min
    Bit rate                    : 44 b/s
    Count of elements           : 1150
    Stream size                 : 33.1 KiB (0%)
    Title                       : Español latino [CinemaniaHDD]
    Language                    : Spanish
    Default                     : No
    Forced                      : No

    Menu
    00:00:00.000                : :Start
    00:06:16.877                : :Visiting Angel
    00:12:07.977                : :A Warning & an Escort
    00:18:16.137                : :Col. Dugan & His Troops
    00:22:33.185                : :Julie & Eric
    00:29:16.546                : :Legacy of Karate
    00:34:35.532                : :Baby-Sitting
    00:43:10.088                : :The Gas Station
    00:47:14.498                : :The Monastery
    00:51:57.156                : :"Respect All Living Things"
    00:59:49.961                : :Dancing Monks
    01:08:04.205                : :Back to School
    01:15:42.246                : :Karate Waltz
    01:22:44.126                : :Eric Comes for Julie
    01:29:40.750                : :Bungee Jumping
    01:33:26.017                : :At the Docks

     

  • Peso: 3.11 GiB

Sinopsis

Julie (Hilary Swank) perdió a sus padres cuando sólo era una niña. Ahora, a sus 17 años, vive con el señor Miyagi, un anciano japonés (Pat Morita) amigo de su abuela. La joven además tiene problemas en el instituto con una banda de muchachos que juegan a proteger a su país de enemigos interiores que ya no respetan el viejo orden.

Español Latino AC3 2.0 WEB-DL – Ingles AC3 5.1 BD

Ficha técnica

Video trailer de la película

Enlaces de descarga

Rip de Bluray

Descargar El Karate Kid 4 (1994) HD 1080p Latino




Aportes de DPeliculasHDmega la pass es:dpeliculashdmega.org Aportes de CinemaniaHD la pass es:cinemaniahdd.com
Guardado en : Acción , Aventura , Drama , Familia , HD 1080p , Romance

Películas relacionadas

  • Stromboli (2022) NF WEB-DL 1080p Latino

    Stromboli (2022) NF WEB-DL 1080p Latino

    2022
    Stromboli (2022) NF WEB-DL 1080p Latino

    1h 26m 2022

    Descargar Stromboli (2022) NF WEB-DL 1080p Latino. Sara, una mujer que se ha divorciado recientemente,...

    Director: Michiel van Erp

    Género: Drama

    Actores: Tim McInnerny

  • Infiesto (2023) NF WEB-DL 1080p Castellano

    Infiesto (2023) NF WEB-DL 1080p Castellano

    2023
    Infiesto (2023) NF WEB-DL 1080p Castellano

    1h 36m 2023

    Descargar Infiesto (2023) NF WEB-DL 1080p Castellano. Mientras el coronavirus trastoca sus vidas, dos...

    Director: Patxi Amezcua

    Género: Crimen

    Actores: Luis Zahera

  • Espiritu Libre (2023) NF WEB-DL 1080p Latino

    Espiritu Libre (2023) NF WEB-DL 1080p Latino

    2023
    Espiritu Libre (2023) NF WEB-DL 1080p Latino

    1h 49m 2023

    Descargar Espiritu Libre (2023) NF WEB-DL 1080p Latino. La película se basa en la increíble historia...

    Director: Sarah Spillane

    Género: Aventura

    Actores: Vivien Turner

  • Un mundo extraño (2022) HD BDRip 1080p Latino

    Un mundo extraño (2022) HD BDRip 1080p Latino

    2022
    Un mundo extraño (2022) HD BDRip 1080p Latino

    1h 42m 2022

    Descargar Un mundo extraño (2022) HD BDRip 1080p Latino. Los Clades son una familia conocida en todo...

    Director: Thai Bettistea

    Género: Animación

    Actores: Reed Buck

descargar El Karate Kid 4 (1994) HD 1080p Latino 1080p 1080p gratis, El Karate Kid 4 (1994) HD 1080p Latino 1080p mega 1 link, El Karate Kid 4 (1994) HD 1080p Latino 1080p pelicula completa, descargar El Karate Kid 4 (1994) HD 1080p Latino 1080p gratis en mega.

El Karate Kid 4 (1994) HD 1080p Latino pelicula full hd, El Karate Kid 4 (1994) HD 1080p Latino mega latino, El Karate Kid 4 (1994) HD 1080p Latino 4k latino, El Karate Kid 4 (1994) HD 1080p Latino pelicula completa, El Karate Kid 4 (1994) HD 1080p Latino descargar gratis, descargar El Karate Kid 4 (1994) HD 1080p Latino pelicula latino, El Karate Kid 4 (1994) HD 1080p Latino 1 link mega, El Karate Kid 4 (1994) HD 1080p Latino 1 link google drive, El Karate Kid 4 (1994) HD 1080p Latino hd 1080p latino.
Comentarios 0