×

¿Problemas para descargar con Mozilla, EDGE? Deshabilita la opción "Abrir vinculos en una pestaña nueva" tal como lo muestra ésta imagen.

El Karate Kid (1984) HD 1080p Latino [MultiDoblaje]

388 vistas

Información de El Karate Kid (1984) HD 1080p Latino [MultiDoblaje]

Datos de la película

  • Calidad: 1080p
  • Audio: Se especifica abajo de la Sinopsis
  • Subtitulos: Español Latino SRT- FORZADOS SRT
  • Resolución: 1920x1040
  • Formato: MKV
  • Codec: H.264
  • Encoder: cinemaniahdd
  • Mediainfo: Clic para Mostrar Datos Ver
  • El Karate Kid (1984) HD 1080p Latino [CNMNHDD].mkv
    Format                      : Matroska
    Format version              : Version 4
    File size                   : 4.47 GiB
    Duration                    : 2 h 6 min
    Overall bit rate            : 5 040 kb/s
    Movie name                  : El Karate Kid (1984) HD - CinemaniaHDD.Net
    Encoded date                : UTC 2020-09-13 18:54:12
    Writing application         : mkvmerge v46.0.0 ('No Deeper Escape') 64-bit
    Writing library             : libebml v1.3.10 + libmatroska v1.5.2

    Video
    ID                          : 1
    Format                      : AVC
    Format/Info                 : Advanced Video Codec
    Format profile              : Main@L4
    Format settings             : CABAC / 4 Ref Frames
    Format settings, CABAC      : Yes
    Format settings, Reference  : 4 frames
    Codec ID                    : V_MPEG4/ISO/AVC
    Duration                    : 2 h 6 min
    Bit rate                    : 3 500 kb/s
    Width                       : 1 920 pixels
    Height                      : 1 040 pixels
    Display aspect ratio        : 1.85:1
    Frame rate mode             : Constant
    Frame rate                  : 23.976 (24000/1001) FPS
    Color space                 : YUV
    Chroma subsampling          : 4:2:0
    Bit depth                   : 8 bits
    Scan type                   : Progressive
    Bits/(Pixel*Frame)          : 0.073
    Stream size                 : 3.05 GiB (68%)
    Title                       : CinemaniaHDD
    Writing library             : x264 core 157 r2935 545de2f
    Encoding settings           : cabac=1 / ref=4 / deblock=1:0:0 / analyse=0x1:0x111 / me=hex / subme=8 / psy=1 / psy_rd=1.00:0.00 / mixed_ref=1 / me_range=16 / chroma_me=1 / trellis=2 / 8x8dct=0 / cqm=0 / deadzone=21,11 / fast_pskip=1 / chroma_qp_offset=-2 / threads=24 / lookahead_threads=4 / sliced_threads=0 / nr=0 / decimate=1 / interlaced=0 / bluray_compat=0 / constrained_intra=0 / bframes=3 / b_pyramid=2 / b_adapt=1 / b_bias=0 / direct=3 / weightb=1 / open_gop=0 / weightp=2 / keyint=240 / keyint_min=24 / scenecut=40 / intra_refresh=0 / rc_lookahead=50 / rc=abr / mbtree=1 / bitrate=3500 / ratetol=1.0 / qcomp=0.60 / qpmin=0 / qpmax=69 / qpstep=4 / vbv_maxrate=20000 / vbv_bufsize=25000 / nal_hrd=none / filler=0 / ip_ratio=1.40 / aq=1:1.00
    Default                     : Yes
    Forced                      : No
    Color range                 : Limited
    Color primaries             : BT.709
    Transfer characteristics    : BT.709
    Matrix coefficients         : BT.709

    Audio #1
    ID                          : 2
    Format                      : AC-3
    Format/Info                 : Audio Coding 3
    Commercial name             : Dolby Digital
    Codec ID                    : A_AC3
    Duration                    : 2 h 6 min
    Bit rate mode               : Constant
    Bit rate                    : 256 kb/s
    Channel(s)                  : 2 channels
    Channel layout              : L R
    Sampling rate               : 48.0 kHz
    Frame rate                  : 31.250 FPS (1536 SPF)
    Compression mode            : Lossy
    Delay relative to video     : -5 ms
    Stream size                 : 232 MiB (5%)
    Title                       : Español latino - Doblaje Original [CinemaniaHDD]
    Language                    : Spanish
    Service kind                : Complete Main
    Default                     : No
    Forced                      : No

    Audio #2
    ID                          : 3
    Format                      : AC-3
    Format/Info                 : Audio Coding 3
    Commercial name             : Dolby Digital
    Codec ID                    : A_AC3
    Duration                    : 2 h 6 min
    Bit rate mode               : Constant
    Bit rate                    : 256 kb/s
    Channel(s)                  : 2 channels
    Channel layout              : L R
    Sampling rate               : 48.0 kHz
    Frame rate                  : 31.250 FPS (1536 SPF)
    Compression mode            : Lossy
    Delay relative to video     : -5 ms
    Stream size                 : 232 MiB (5%)
    Title                       : Español latino - Redoblaje 1 [CinemaniaHDD]
    Language                    : Spanish
    Service kind                : Complete Main
    Default                     : Yes
    Forced                      : Yes

    Audio #3
    ID                          : 4
    Format                      : AC-3
    Format/Info                 : Audio Coding 3
    Commercial name             : Dolby Digital
    Codec ID                    : A_AC3
    Duration                    : 2 h 6 min
    Bit rate mode               : Constant
    Bit rate                    : 640 kb/s
    Channel(s)                  : 6 channels
    Channel layout              : L R C LFE Ls Rs
    Sampling rate               : 48.0 kHz
    Frame rate                  : 31.250 FPS (1536 SPF)
    Compression mode            : Lossy
    Delay relative to video     : -5 ms
    Stream size                 : 581 MiB (13%)
    Title                       : Español latino - Redoblaje 2 [CinemaniaHDD]
    Language                    : Spanish
    Service kind                : Complete Main
    Default                     : No
    Forced                      : No

    Audio #4
    ID                          : 5
    Format                      : AC-3
    Format/Info                 : Audio Coding 3
    Commercial name             : Dolby Digital
    Codec ID                    : A_AC3
    Duration                    : 2 h 6 min
    Bit rate mode               : Constant
    Bit rate                    : 448 kb/s
    Channel(s)                  : 6 channels
    Channel layout              : L R C LFE Ls Rs
    Sampling rate               : 48.0 kHz
    Frame rate                  : 31.250 FPS (1536 SPF)
    Compression mode            : Lossy
    Delay relative to video     : -5 ms
    Stream size                 : 407 MiB (9%)
    Title                       : Inglés [CinemaniaHDD]
    Language                    : English
    Service kind                : Complete Main
    Default                     : No
    Forced                      : No

    Text #1
    ID                          : 6
    Format                      : UTF-8
    Codec ID                    : S_TEXT/UTF8
    Codec ID/Info               : UTF-8 Plain Text
    Duration                    : 1 h 30 min
    Bit rate                    : 0 b/s
    Count of elements           : 6
    Stream size                 : 195 Bytes (0%)
    Title                       : Forzados [CinemaniaHDD]
    Language                    : Spanish
    Default                     : Yes
    Forced                      : Yes

    Text #2
    ID                          : 7
    Format                      : UTF-8
    Codec ID                    : S_TEXT/UTF8
    Codec ID/Info               : UTF-8 Plain Text
    Duration                    : 2 h 2 min
    Bit rate                    : 47 b/s
    Count of elements           : 1668
    Stream size                 : 43.0 KiB (0%)
    Title                       : Español latino [CinemaniaHDD]
    Language                    : Spanish
    Default                     : No
    Forced                      : No

    Menu
    00:00:00.000                : :Start
    00:03:49.688                : :Paradise at Last
    00:08:57.370                : :Beach Party
    00:16:02.044                : :Soccer Trials
    00:20:34.525                : :The Cafeteria
    00:21:51.894                : :Karate School
    00:25:19.018                : :Bike vs. Bikers
    00:26:09.068                : :"Can't We Go Home?"
    00:27:58.510                : :Dealing with It
    00:35:30.045                : :Halloween Dance
    00:39:36.708                : :No Mercy
    00:52:41.033                : :Training Begins
    01:00:02.808                : :Ali's Encino Home
    01:02:39.047                : :The Arcade
    01:05:29.342                : :Sanding the Deck
    01:09:53.731                : :Painting the Fence
    01:13:07.717                : :Paint House
    01:18:00.176                : :"Learn Balance"
    01:21:57.454                : :"No Scare Fish"
    01:24:19.179                : :The Country Club
    01:26:47.869                : :Anniversary
    01:33:07.123                : :Solo Practice
    01:34:02.387                : :Secret to Punch
    01:35:37.065                : :Birthday Party
    01:40:56.133                : :Apology Accepted
    01:45:31.867                : :Registration
    01:48:23.956                : :Competition Begins
    01:57:51.731                : :Daniel vs. Johnny

     

  • Peso: 4.47 GiB

Sinopsis

Daniel Larusso llega a Los Angeles procedente de la costa Este de Estados Unidos dispuesto a hacer nuevos amigos. Sin embargo, se convierte en el blanco de los ataques de los Cobras, un hostil grupo de estudiantes de kárate, cuando comienza a salir con Ali, la antigua novia del cabecilla del grupo. En tal situación, no tiene más remedio que pedirle ayuda a Miyagi, un maestro de artes marciales, para que le enseñe kárate. Bajo la tutela de Miyagi, Daniel desarrolla no sólo sus aptitudes físicas, sino también la seguridad en sí mismo que necesita para superar todos los obstáculos.

Español Latino AC3 2.0 [Doblaje Original] – Español Latino AC3 2.0 [Redoblaje 1] – Español Latino AC3 5.1 [Redoblaje 2] – Ingles AC3 5.1 BD

Ficha técnica

Video trailer de la película

Enlaces de descarga

Rip de Bluray

Descargar El Karate Kid (1984) HD 1080p Latino [MultiDoblaje]




Aportes de DPeliculasHDmega la pass es:dpeliculashdmega.org Aportes de CinemaniaHD la pass es:cinemaniahdd.com
Guardado en : Acción , Drama , Familia , HD 1080p

Películas relacionadas

  • Wire Room (2022) HD 1080p Latino

    Wire Room (2022) HD 1080p Latino

    2022
    Wire Room (2022) HD 1080p Latino

    1h 37m 2022

    Descargar Wire Room (2022) HD 1080p Latino. Mientras está de servicio en la sala de cables, un agente...

    Director: Matt Eskandari

    Género: Acción

    Actores: Texas Battle

  • Wire Room (2022) PLACEBO Full HD 1080p Latino

    Wire Room (2022) PLACEBO Full HD 1080p Latino

    2022
    Wire Room (2022) PLACEBO Full HD 1080p Latino

    1h 37m 2022

    Descargar Wire Room (2022) PLACEBO Full HD 1080p Latino. Mientras está de servicio en la sala de cables,...

    Director: Matt Eskandari

    Género: Acción

    Actores: Texas Battle

  • Wire Room (2022) REMUX 1080p Latino

    Wire Room (2022) REMUX 1080p Latino

    2022
    Wire Room (2022) REMUX 1080p Latino

    1h 37m 2022

    Descargar Wire Room (2022) REMUX 1080p Latino. Mientras está de servicio en la sala de cables, un agente...

    Director: Matt Eskandari

    Género: Acción

    Actores: Texas Battle

descargar El Karate Kid (1984) HD 1080p Latino [MultiDoblaje] 1080p 1080p gratis, El Karate Kid (1984) HD 1080p Latino [MultiDoblaje] 1080p mega 1 link, El Karate Kid (1984) HD 1080p Latino [MultiDoblaje] 1080p pelicula completa, descargar El Karate Kid (1984) HD 1080p Latino [MultiDoblaje] 1080p gratis en mega.

El Karate Kid (1984) HD 1080p Latino [MultiDoblaje] pelicula full hd, El Karate Kid (1984) HD 1080p Latino [MultiDoblaje] mega latino, El Karate Kid (1984) HD 1080p Latino [MultiDoblaje] 4k latino, El Karate Kid (1984) HD 1080p Latino [MultiDoblaje] pelicula completa, El Karate Kid (1984) HD 1080p Latino [MultiDoblaje] descargar gratis, descargar El Karate Kid (1984) HD 1080p Latino [MultiDoblaje] pelicula latino, El Karate Kid (1984) HD 1080p Latino [MultiDoblaje] 1 link mega, El Karate Kid (1984) HD 1080p Latino [MultiDoblaje] 1 link google drive, El Karate Kid (1984) HD 1080p Latino [MultiDoblaje] hd 1080p latino.
Comentarios 0