×

¿Problemas para descargar con Mozilla, EDGE? Deshabilita la opción "Abrir vinculos en una pestaña nueva" tal como lo muestra ésta imagen.

El Juego de las Llaves (2019) Temporada 1 AMZN WEB-DL 1080p Latino

2.880 vistas

Información de El Juego de las Llaves (2019) Temporada 1 AMZN WEB-DL 1080p Latino

MV5BZWFjN2JmODgtYzg1NC00OTJkLThiOTctMmE5NjllNWNkZWY4XkEyXkFqcGdeQXVyOTg5OTA4MzE@. V1

Datos de la película

  • Calidad: WEBDL
  • Audio: Se especifica abajo de la Sinopsis
  • Subtitulos: Español Latino SRT - Ingles SRT
  • Resolución: 1920x1080
  • Formato: MKV
  • Codec: H.264
  • Encoder: cinemaniahdd
  • Mediainfo: Clic para Mostrar Datos Ver
  • El Juego De Las Llaves S01E04 AMZN WEB-DL 1080p Latino.mkv
    Format                      : Matroska
    Format version              : Version 4
    File size                   : 1.81 GiB
    Duration                    : 34 min 19 s
    Overall bit rate            : 7 549 kb/s
    Movie name                  : El Juego De Las Llaves S01E04 - CinemaniaHDD.Net
    Encoded date                : UTC 2019-08-30 20:44:52
    Writing application         : mkvmerge v35.0.0 ('All The Love In The World') 64-bit
    Writing library             : libebml v1.3.9 + libmatroska v1.5.2

    Video
    ID                          : 1
    Format                      : AVC
    Format/Info                 : Advanced Video Codec
    Format profile              : High@L4
    Format settings             : CABAC / 4 Ref Frames
    Format settings, CABAC      : Yes
    Format settings, ReFrames   : 4 frames
    Codec ID                    : V_MPEG4/ISO/AVC
    Duration                    : 34 min 19 s
    Bit rate                    : 6 907 kb/s
    Width                       : 1 920 pixels
    Height                      : 1 080 pixels
    Display aspect ratio        : 16:9
    Frame rate mode             : Constant
    Frame rate                  : 23.976 (24000/1001) FPS
    Color space                 : YUV
    Chroma subsampling          : 4:2:0
    Bit depth                   : 8 bits
    Scan type                   : Progressive
    Bits/(Pixel*Frame)          : 0.139
    Stream size                 : 1.66 GiB (91%)
    Title                       : CinemaniaHDD
    Default                     : Yes
    Forced                      : No
    Color range                 : Limited
    Color primaries             : BT.709
    Transfer characteristics    : BT.709
    Matrix coefficients         : BT.709

    Audio
    ID                          : 2
    Format                      : E-AC-3
    Format/Info                 : Enhanced AC-3
    Commercial name             : Dolby Digital Plus
    Codec ID                    : A_EAC3
    Duration                    : 34 min 19 s
    Bit rate mode               : Constant
    Bit rate                    : 640 kb/s
    Channel(s)                  : 6 channels
    Channel layout              : L R C LFE Ls Rs
    Sampling rate               : 48.0 kHz
    Frame rate                  : 31.250 FPS (1536 SPF)
    Compression mode            : Lossy
    Stream size                 : 157 MiB (8%)
    Title                       : Español latino [CinemaniaHDD]
    Language                    : Spanish
    Service kind                : Complete Main
    Default                     : Yes
    Forced                      : No

    Text #1
    ID                          : 3
    Format                      : UTF-8
    Codec ID                    : S_TEXT/UTF8
    Codec ID/Info               : UTF-8 Plain Text
    Duration                    : 31 min 59 s
    Bit rate                    : 77 b/s
    Count of elements           : 620
    Stream size                 : 18.1 KiB (0%)
    Title                       : Español latino [CinemaniaHDD]
    Language                    : Spanish
    Default                     : No
    Forced                      : No

    Text #2
    ID                          : 4
    Format                      : UTF-8
    Codec ID                    : S_TEXT/UTF8
    Codec ID/Info               : UTF-8 Plain Text
    Duration                    : 32 min 23 s
    Bit rate                    : 60 b/s
    Count of elements           : 503
    Stream size                 : 14.4 KiB (0%)
    Title                       : Inglés [CinemaniaHDD]
    Language                    : English
    Default                     : No
    Forced                      : No

     

  • Peso: 1.81 GiB c/u

Sinopsis

Ocho amigos, todos en una relación estable, deciden aventurarse en un juego de descubrimiento sexual intercambiando parejas mientras intentan liberarse de su rutina diaria y agregar un toque picante a su vida amorosa.

Español Latino E-AC3 5.1 AMAZON

Ficha técnica

  • Titulo original: El Juego de las Llaves
  • Fecha de lanzamiento: 16-08-2019 (MX)
  • Director: Marisa Quiroga
  • Género: Drama

Video trailer de la película

Enlaces de descarga

Rip de Bluray

Descargar El Juego de las Llaves (2019) Temporada 1 AMZN WEB-DL 1080p Latino




Aportes de DPeliculasHDmega la pass es:dpeliculashdmega.org Aportes de CinemaniaHD la pass es:cinemaniahdd.com
Guardado en : Drama

Películas relacionadas

  • Blonde (2022) NF WEB-DL 1080p Latino

    Blonde (2022) NF WEB-DL 1080p Latino

    2022
    Blonde (2022) NF WEB-DL 1080p Latino

    2h 46m 2022

    Descargar Blonde (2022) NF WEB-DL 1080p Latino. Basada en el bestseller de la cinco veces finalista al...

    Director: Kristin Bree Calabrese

    Género: Drama

    Actores: Xavier Samuel

  • Infiniti (2022) Primera Temporada WEB-DL 1080p Latino

    Infiniti (2022) Primera Temporada WEB-DL 1080p Latino

    2022
    Infiniti (2022) Primera Temporada WEB-DL 1080p Latino

    0h 52m 2022

    La ISS, la Estación Espacial Internacional se ha quedado en silencio. La tripulación está en peligro....

    Director: Stéphane Pannetier

    Género: Drama

    Actores: Vlad Ivanov

  • Athena (2022) NF WEB-DL 1080p Latino

    Athena (2022) NF WEB-DL 1080p Latino

    2022
    Athena (2022) NF WEB-DL 1080p Latino

    1h 37m 2022

    Descargar Athena (2022) NF WEB-DL 1080p Latino. Horas después de la trágica muerte de su hermano menor...

    Director: Romain Gavras

    Género: Acción

    Actores: Tarek Haddaji

descargar El Juego de las Llaves (2019) Temporada 1 AMZN WEB-DL 1080p Latino WEBDL 1080p gratis, El Juego de las Llaves (2019) Temporada 1 AMZN WEB-DL 1080p Latino WEBDL mega 1 link, El Juego de las Llaves (2019) Temporada 1 AMZN WEB-DL 1080p Latino WEBDL pelicula completa, descargar El Juego de las Llaves (2019) Temporada 1 AMZN WEB-DL 1080p Latino WEBDL gratis en mega.

El Juego de las Llaves (2019) Temporada 1 AMZN WEB-DL 1080p Latino pelicula full hd, El Juego de las Llaves (2019) Temporada 1 AMZN WEB-DL 1080p Latino mega latino, El Juego de las Llaves (2019) Temporada 1 AMZN WEB-DL 1080p Latino 4k latino, El Juego de las Llaves (2019) Temporada 1 AMZN WEB-DL 1080p Latino pelicula completa, El Juego de las Llaves (2019) Temporada 1 AMZN WEB-DL 1080p Latino descargar gratis, descargar El Juego de las Llaves (2019) Temporada 1 AMZN WEB-DL 1080p Latino pelicula latino, El Juego de las Llaves (2019) Temporada 1 AMZN WEB-DL 1080p Latino 1 link mega, El Juego de las Llaves (2019) Temporada 1 AMZN WEB-DL 1080p Latino 1 link google drive, El Juego de las Llaves (2019) Temporada 1 AMZN WEB-DL 1080p Latino hd 1080p latino.
Comentarios 0