×

¿Problemas para descargar con Mozilla, EDGE? Deshabilita la opción "Abrir vinculos en una pestaña nueva" tal como lo muestra ésta imagen.

El juego de Ender (2013) REMUX 1080p Latino – CMHDD

417 vistas

Información de El juego de Ender (2013) REMUX 1080p Latino – CMHDD

Datos de la película

  • Calidad: Full 1080p
  • Audio: Español Latino AC3 5.1 BLURAY - Ingles DTS 5.1 BLURAY
  • Subtitulos: Español Latino SRT- FORZADOS SRT
  • Resolución: 1920x1080p
  • Formato: MKV
  • Codec: H.264
  • Encoder: Dracarys
  • Mediainfo: Clic para Mostrar Datos Ver
  • Format                      : Matroska
    Format version              : Version 4
    File size                   : 31.1 GiB
    Duration                    : 1 h 53 min
    Overall bit rate mode       : Variable
    Overall bit rate            : 39.1 Mb/s
    Movie name                  : El juego de Ender (2013) REMUX 1080p Latino - CMHDD
    Encoded date                : UTC 2020-06-04 05:10:41
    Writing application         : mkvmerge v46.0.0 ('No Deeper Escape') 64-bit
    Writing library             : libebml v1.3.10 + libmatroska v1.5.2

    Video
    ID                          : 1
    Format                      : AVC
    Format/Info                 : Advanced Video Codec
    Format profile              : High@L4.1
    Format settings             : CABAC / 4 Ref Frames
    Format settings, CABAC      : Yes
    Format settings, Reference  : 4 frames
    Codec ID                    : V_MPEG4/ISO/AVC
    Duration                    : 1 h 53 min
    Bit rate mode               : Variable
    Bit rate                    : 33.7 Mb/s
    Maximum bit rate            : 37.0 Mb/s
    Width                       : 1 920 pixels
    Height                      : 1 080 pixels
    Display aspect ratio        : 16:9
    Frame rate mode             : Constant
    Frame rate                  : 23.976 (24000/1001) FPS
    Color space                 : YUV
    Chroma subsampling          : 4:2:0
    Bit depth                   : 8 bits
    Scan type                   : Progressive
    Bits/(Pixel*Frame)          : 0.677
    Stream size                 : 26.8 GiB (86%)
    Language                    : English
    Default                     : Yes
    Forced                      : No

    Audio #1
    ID                          : 2
    Format                      : AC-3
    Format/Info                 : Audio Coding 3
    Commercial name             : Dolby Digital
    Codec ID                    : A_AC3
    Duration                    : 1 h 53 min
    Bit rate mode               : Constant
    Bit rate                    : 448 kb/s
    Channel(s)                  : 6 channels
    Channel layout              : L R C LFE Ls Rs
    Sampling rate               : 48.0 kHz
    Frame rate                  : 31.250 FPS (1536 SPF)
    Compression mode            : Lossy
    Delay relative to video     : 1 s 300 ms
    Stream size                 : 365 MiB (1%)
    Language                    : Spanish
    Service kind                : Complete Main
    Default                     : Yes
    Forced                      : No

    Audio #2
    ID                          : 3
    Format                      : DTS XLL
    Format/Info                 : Digital Theater Systems
    Commercial name             : DTS-HD Master Audio
    Codec ID                    : A_DTS
    Duration                    : 1 h 53 min
    Bit rate mode               : Variable
    Bit rate                    : 4 984 kb/s
    Channel(s)                  : 8 channels
    Channel layout              : C L R LFE Lb Rb Lss Rss
    Sampling rate               : 48.0 kHz
    Frame rate                  : 93.750 FPS (512 SPF)
    Bit depth                   : 24 bits
    Compression mode            : Lossless
    Stream size                 : 3.96 GiB (13%)
    Language                    : English
    Default                     : No
    Forced                      : No

    Text #1
    ID                          : 4
    Format                      : UTF-8
    Codec ID                    : S_TEXT/UTF8
    Codec ID/Info               : UTF-8 Plain Text
    Duration                    : 38 min 28 s
    Bit rate                    : 0 b/s
    Count of elements           : 2
    Stream size                 : 72.0 Bytes (0%)
    Title                       : Forzados
    Language                    : Spanish
    Default                     : Yes
    Forced                      : No

    Text #2
    ID                          : 5
    Format                      : UTF-8
    Codec ID                    : S_TEXT/UTF8
    Codec ID/Info               : UTF-8 Plain Text
    Duration                    : 1 h 44 min
    Bit rate                    : 56 b/s
    Count of elements           : 1370
    Stream size                 : 43.3 KiB (0%)
    Language                    : Spanish
    Default                     : No
    Forced                      : No

    Menu
    00:00:00.000                : en:00:00:00.000
    00:06:10.579                : en:00:06:10.579
    00:14:18.566                : en:00:14:18.566
    00:19:06.145                : en:00:19:06.145
    00:28:07.144                : en:00:28:07.144
    00:33:22.667                : en:00:33:22.667
    00:39:34.664                : en:00:39:34.664
    00:45:43.407                : en:00:45:43.407
    00:53:37.714                : en:00:53:37.714
    01:02:15.607                : en:01:02:15.607
    01:09:21.949                : en:01:09:21.949
    01:15:16.887                : en:01:15:16.887
    01:23:38.305                : en:01:23:38.305
    01:30:54.824                : en:01:30:54.824
    01:35:43.279                : en:01:35:43.279
    01:41:12.858                : en:01:41:12.858

  • Peso: 31.1 GiB

Sinopsis

En un futuro cercano, una raza alienígena llamada Insectores ha atacado la Tierra. De no ser por un héroe legendario, el comandante de la Flota Internacional, Mazer Rackham, todo se habría perdido. Preparándose para el próximo ataque, el estricto coronel Hyrum Graff y el Ejército Internacional entrenan sólo a los mejores jóvenes para encontrar al futuro Mazer. Entre estos jóvenes está Ender Wiggin, un chico tímido pero brillante estratega, reclutado para unirse a la élite en la Escuela de Batalla. Se acerca una épica batalla que determinará el futuro de la Tierra y la salvación de la raza humana.

Ficha técnica

Video trailer de la película

Enlaces de descarga

Rip de Bluray

Descargar El juego de Ender (2013) REMUX 1080p Latino – CMHDD




Aportes de DPeliculasHDmega la pass es:dpeliculashdmega.org Aportes de CinemaniaHD la pass es:cinemaniahdd.com
Guardado en : Acción , Aventura , Ciencia ficción , Remux

Películas relacionadas

  • Paradise Highway (2022) REMUX 1080p Latino

    Paradise Highway (2022) REMUX 1080p Latino

    2022
    Paradise Highway (2022) REMUX 1080p Latino

    1h 55m 2022

    Descargar Paradise Highway (2022) REMUX 1080p Latino. Un camionero se ha visto obligado a pasar de contrabando...

    Director: Anna Gutto

    Género: Crimen

    Actores: Xavier Scott Evans

  • Shotgun Wedding (2022) AMZN WEB-DL 1080p Latino

    Shotgun Wedding (2022) AMZN WEB-DL 1080p Latino

    2022
    Shotgun Wedding (2022) AMZN WEB-DL 1080p Latino

    1h 41m 2022

    Darcy y Tom reúnen a sus familias para la boda de destino definitiva, pero cuando toman como rehenes...

    Director: Jason Moore

    Género: Acción

    Actores: Steve Coulter

  • M3GAN (2023) AMZN WEB-DL 4K UHD HDR Latino

    M3GAN (2023) AMZN WEB-DL 4K UHD HDR Latino

    2022
    M3GAN (2023) AMZN WEB-DL 4K UHD HDR Latino

    1h 42m 2022

    Descargar M3GAN (2023) AMZN WEB-DL 4K UHD HDR Latino. Cuando Gemma se convierte en la cuidadora de su...

    Director: Stephen W. Moore

    Género: 4K HDR

    Actores: Violet McGraw

  • M3GAN (2022) MA WEB-DL 1080p Latino

    M3GAN (2022) MA WEB-DL 1080p Latino

    2022
    M3GAN (2022) MA WEB-DL 1080p Latino

    1h 42m 2022

    Descargar M3GAN (2022) MA WEB-DL 1080p Latino. Cuando Gemma se convierte en la cuidadora de su sobrina...

    Director: Stephen W. Moore

    Género: Ciencia ficción

    Actores: Violet McGraw

descargar El juego de Ender (2013) REMUX 1080p Latino – CMHDD Full 1080p 1080p gratis, El juego de Ender (2013) REMUX 1080p Latino – CMHDD Full 1080p mega 1 link, El juego de Ender (2013) REMUX 1080p Latino – CMHDD Full 1080p pelicula completa, descargar El juego de Ender (2013) REMUX 1080p Latino – CMHDD Full 1080p gratis en mega.

El juego de Ender (2013) REMUX 1080p Latino – CMHDD pelicula full hd, El juego de Ender (2013) REMUX 1080p Latino – CMHDD mega latino, El juego de Ender (2013) REMUX 1080p Latino – CMHDD 4k latino, El juego de Ender (2013) REMUX 1080p Latino – CMHDD pelicula completa, El juego de Ender (2013) REMUX 1080p Latino – CMHDD descargar gratis, descargar El juego de Ender (2013) REMUX 1080p Latino – CMHDD pelicula latino, El juego de Ender (2013) REMUX 1080p Latino – CMHDD 1 link mega, El juego de Ender (2013) REMUX 1080p Latino – CMHDD 1 link google drive, El juego de Ender (2013) REMUX 1080p Latino – CMHDD hd 1080p latino.
Comentarios 0