×

¿Problemas para descargar con Mozilla, EDGE? Deshabilita la opción "Abrir vinculos en una pestaña nueva" tal como lo muestra ésta imagen.

El joven manos de tijera (1990) REMUX 1080p Latino

345 vistas

Información de El joven manos de tijera (1990) REMUX 1080p Latino

Datos de la película

  • Calidad: Full 1080p
  • Audio: Español Latino AC3 2.0 BLURAY - Ingles DTS 5.1 BLURAY
  • Subtitulos: Español Latino SRT- FORZADOS SRT
  • Resolución: 1920x1080p
  • Formato: MKV
  • Codec: H.264
  • Encoder: Dracarys
  • Mediainfo: Clic para Mostrar Datos Ver
  • Format                      : Matroska
    Format version              : Version 4
    File size                   : 24.3 GiB
    Duration                    : 1 h 45 min
    Overall bit rate mode       : Variable
    Overall bit rate            : 33.1 Mb/s
    Movie name                  : CinemaniaHDD.net
    Encoded date                : UTC 2020-05-04 00:32:01
    Writing application         : mkvmerge v38.0.0 ('The Silent Type') 64-bit
    Writing library             : libebml v1.3.9 + libmatroska v1.5.2

    Video
    ID                          : 1
    Format                      : AVC
    Format/Info                 : Advanced Video Codec
    Format profile              : High@L4.1
    Format settings             : CABAC / 4 Ref Frames
    Format settings, CABAC      : Yes
    Format settings, ReFrames   : 4 frames
    Format settings, GOP        : M=3, N=12
    Codec ID                    : V_MPEG4/ISO/AVC
    Duration                    : 1 h 45 min
    Bit rate mode               : Variable
    Bit rate                    : 29.9 Mb/s
    Maximum bit rate            : 31.0 Mb/s
    Width                       : 1 920 pixels
    Height                      : 1 080 pixels
    Display aspect ratio        : 16:9
    Frame rate mode             : Constant
    Frame rate                  : 23.976 (24000/1001) FPS
    Color space                 : YUV
    Chroma subsampling          : 4:2:0
    Bit depth                   : 8 bits
    Scan type                   : Progressive
    Bits/(Pixel*Frame)          : 0.601
    Stream size                 : 21.9 GiB (90%)
    Default                     : Yes
    Forced                      : No

    Audio #1
    ID                          : 2
    Format                      : AC-3
    Format/Info                 : Audio Coding 3
    Commercial name             : Dolby Digital
    Codec ID                    : A_AC3
    Duration                    : 1 h 45 min
    Bit rate mode               : Constant
    Bit rate                    : 224 kb/s
    Channel(s)                  : 2 channels
    Channel layout              : L R
    Sampling rate               : 48.0 kHz
    Frame rate                  : 31.250 FPS (1536 SPF)
    Bit depth                   : 16 bits
    Compression mode            : Lossy
    Delay relative to video     : 24 ms
    Stream size                 : 168 MiB (1%)
    Title                       : Blu-Ray-2.0
    Language                    : Spanish
    Service kind                : Complete Main
    Default                     : Yes
    Forced                      : No

    Audio #2
    ID                          : 3
    Format                      : DTS XLL
    Format/Info                 : Digital Theater Systems
    Commercial name             : DTS-HD Master Audio
    Codec ID                    : A_DTS
    Duration                    : 1 h 45 min
    Bit rate mode               : Variable
    Bit rate                    : 3 013 kb/s
    Channel(s)                  : 4 channels
    Channel layout              : C L R Cb
    Sampling rate               : 48.0 kHz
    Frame rate                  : 93.750 FPS (512 SPF)
    Bit depth                   : 24 bits
    Compression mode            : Lossless
    Stream size                 : 2.21 GiB (9%)
    Title                       : DTS-HD MA 4.0
    Language                    : English
    Default                     : No
    Forced                      : No

    Text #1
    ID                          : 4
    Format                      : UTF-8
    Codec ID                    : S_TEXT/UTF8
    Codec ID/Info               : UTF-8 Plain Text
    Duration                    : 1 h 38 min
    Bit rate                    : 0 b/s
    Count of elements           : 5
    Stream size                 : 95.0 Bytes (0%)
    Title                       : SRT-Forzados
    Language                    : Spanish
    Default                     : Yes
    Forced                      : No

    Text #2
    ID                          : 5
    Format                      : UTF-8
    Codec ID                    : S_TEXT/UTF8
    Codec ID/Info               : UTF-8 Plain Text
    Duration                    : 1 h 41 min
    Bit rate                    : 43 b/s
    Count of elements           : 940
    Stream size                 : 32.4 KiB (0%)
    Title                       : SRT-Completos
    Language                    : Spanish
    Default                     : No
    Forced                      : No

    Text #3
    ID                          : 6
    Format                      : PGS
    Muxing mode                 : zlib
    Codec ID                    : S_HDMV/PGS
    Codec ID/Info               : Picture based subtitle format used on BDs/HD-DVDs
    Duration                    : 1 h 41 min
    Bit rate                    : 26.7 kb/s
    Count of elements           : 1880
    Stream size                 : 19.5 MiB (0%)
    Title                       : PGS-Completos
    Language                    : Spanish
    Default                     : No
    Forced                      : No

    Menu
    00:00:00.000                : en:Main Titles
    00:02:44.956                : en:A Story About Snow
    00:05:18.109                : en:Avon Calling
    00:12:24.619                : en:Peg Meets Edward
    00:16:35.620                : en:Local Gossip
    00:28:31.501                : en:Edward's Talent
    00:31:26.301                : en:The Neighbors
    00:33:28.256                : en:The Inventor
    00:35:28.668                : en:Backyard Barbecue
    00:38:14.876                : en:Remembering
    00:39:47.677                : en:Kim
    00:45:03.409                : en:Show and Tell
    00:47:37.855                : en:More Talents
    00:54:37.566                : en:Edward on TV
    00:56:56.538                : en:A Beauty Salon
    01:01:17.799                : en:The Need for Money
    01:04:39.042                : en:Drop Your Weapons
    01:09:21.449                : en:A Ruined Reputation
    01:15:50.337                : en:The Ice Angel
    01:19:04.156                : en:Edward Gets Mad
    01:24:56.633                : en:A Christmas Past
    01:27:05.554                : en:Jim's Revenge
    01:37:03.359                : en:The Story's End
    01:39:45.813                : en:End Titles

  • Peso: 24.3 GiB

Sinopsis

Érase una vez… un castillo donde vivía un inventor que dedicó parte de su vida a crear una criatura perfecta a la que llamó Edward. Pero el inventor murió de repente y dejó incompleta su creación, ya que en vez de dedos tenía unas horribles manos con hojas de tijera. El pobre Edward vivía sólo en el castillo hasta que una encantadora joven, que trabajaba para la firma Avon, lo llevó a su casa junto con su familia. Pero una criatura tan especial como Edward no estaba preparada para vivir en una ciudad tan extravagante y falsa como Suburbia.

Ficha técnica

Video trailer de la película

Enlaces de descarga

Rip de Bluray

Descargar El joven manos de tijera (1990) REMUX 1080p Latino




Aportes de DPeliculasHDmega la pass es:dpeliculashdmega.org Aportes de CinemaniaHD la pass es:cinemaniahdd.com
Guardado en : Drama , Fantasía , Remux , Romance

Películas relacionadas

descargar El joven manos de tijera (1990) REMUX 1080p Latino Full 1080p 1080p gratis, El joven manos de tijera (1990) REMUX 1080p Latino Full 1080p mega 1 link, El joven manos de tijera (1990) REMUX 1080p Latino Full 1080p pelicula completa, descargar El joven manos de tijera (1990) REMUX 1080p Latino Full 1080p gratis en mega.

El joven manos de tijera (1990) REMUX 1080p Latino pelicula full hd, El joven manos de tijera (1990) REMUX 1080p Latino mega latino, El joven manos de tijera (1990) REMUX 1080p Latino 4k latino, El joven manos de tijera (1990) REMUX 1080p Latino pelicula completa, El joven manos de tijera (1990) REMUX 1080p Latino descargar gratis, descargar El joven manos de tijera (1990) REMUX 1080p Latino pelicula latino, El joven manos de tijera (1990) REMUX 1080p Latino 1 link mega, El joven manos de tijera (1990) REMUX 1080p Latino 1 link google drive, El joven manos de tijera (1990) REMUX 1080p Latino hd 1080p latino.
Comentarios 0