×

¿Problemas para descargar con Mozilla, EDGE? Deshabilita la opción "Abrir vinculos en una pestaña nueva" tal como lo muestra ésta imagen.

El jilguero (2019) WEB-DL 1080p Latino

1.271 vistas

Información de El jilguero (2019) WEB-DL 1080p Latino

Datos de la película

  • Calidad: WEBDL
  • Audio: Español Latino AC3 2.0 iTunes - Ingles AC3 5.1 iTunes
  • Subtitulos: Español Latino SRT- FORZADOS SRT
  • Resolución: 1920x1080
  • Formato: MKV
  • Codec: H.264
  • Encoder: cinemaniahdd
  • Mediainfo: Clic para Mostrar Datos Ver
  • El jilguero (2019) WEB-DL 1080p Latino.mkv
    Format                      : Matroska
    Format version              : Version 4
    File size                   : 5.87 GiB
    Duration                    : 2 h 29 min
    Overall bit rate            : 5 621 kb/s
    Movie name                  : El jilguero (2019) - CinemaniaHDD.Net
    Encoded date                : UTC 2019-11-19 05:49:13
    Writing application         : mkvmerge v38.0.0 ('The Silent Type') 64-bit
    Writing library             : libebml v1.3.9 + libmatroska v1.5.2

    Video
    ID                          : 1
    Format                      : AVC
    Format/Info                 : Advanced Video Codec
    Format profile              : High@L4
    Format settings             : CABAC / 4 Ref Frames
    Format settings, CABAC      : Yes
    Format settings, ReFrames   : 4 frames
    Codec ID                    : V_MPEG4/ISO/AVC
    Duration                    : 2 h 29 min
    Bit rate                    : 4 980 kb/s
    Width                       : 1 920 pixels
    Height                      : 1 036 pixels
    Display aspect ratio        : 1.85:1
    Frame rate mode             : Constant
    Frame rate                  : 23.976 FPS
    Color space                 : YUV
    Chroma subsampling          : 4:2:0
    Bit depth                   : 8 bits
    Scan type                   : Progressive
    Bits/(Pixel*Frame)          : 0.104
    Stream size                 : 5.20 GiB (89%)
    Title                       : CinemaniaHDD
    Language                    : English
    Default                     : Yes
    Forced                      : No
    Color range                 : Limited
    Color primaries             : BT.709
    Transfer characteristics    : BT.709
    Matrix coefficients         : BT.709

    Audio #1
    ID                          : 2
    Format                      : AC-3
    Format/Info                 : Audio Coding 3
    Commercial name             : Dolby Digital
    Codec ID                    : A_AC3
    Duration                    : 2 h 29 min
    Bit rate mode               : Constant
    Bit rate                    : 256 kb/s
    Channel(s)                  : 2 channels
    Channel layout              : L R
    Sampling rate               : 48.0 kHz
    Frame rate                  : 31.250 FPS (1536 SPF)
    Bit depth                   : 16 bits
    Compression mode            : Lossy
    Delay relative to video     : -43 ms
    Stream size                 : 274 MiB (5%)
    Title                       : Español latino [CinemaniaHDD]
    Language                    : Spanish
    Service kind                : Complete Main
    Default                     : Yes
    Forced                      : No

    Audio #2
    ID                          : 3
    Format                      : AC-3
    Format/Info                 : Audio Coding 3
    Commercial name             : Dolby Digital
    Codec ID                    : A_AC3
    Duration                    : 2 h 29 min
    Bit rate mode               : Constant
    Bit rate                    : 384 kb/s
    Channel(s)                  : 6 channels
    Channel layout              : L R C LFE Ls Rs
    Sampling rate               : 48.0 kHz
    Frame rate                  : 31.250 FPS (1536 SPF)
    Bit depth                   : 16 bits
    Compression mode            : Lossy
    Delay relative to video     : -43 ms
    Stream size                 : 410 MiB (7%)
    Title                       : Inglés [CinemaniaHDD]
    Language                    : English
    Service kind                : Complete Main
    Default                     : No
    Forced                      : No

    Text #1
    ID                          : 4
    Format                      : UTF-8
    Codec ID                    : S_TEXT/UTF8
    Codec ID/Info               : UTF-8 Plain Text
    Duration                    : 1 h 46 min
    Bit rate                    : 0 b/s
    Count of elements           : 9
    Stream size                 : 375 Bytes (0%)
    Title                       : Forzados [CinemaniaHDD]
    Language                    : Spanish
    Default                     : Yes
    Forced                      : Yes

    Text #2
    ID                          : 5
    Format                      : UTF-8
    Codec ID                    : S_TEXT/UTF8
    Codec ID/Info               : UTF-8 Plain Text
    Duration                    : 2 h 28 min
    Bit rate                    : 43 b/s
    Count of elements           : 1680
    Stream size                 : 47.8 KiB (0%)
    Title                       : Español latino [CinemaniaHDD]
    Language                    : Spanish
    Default                     : No
    Forced                      : No

    Menu
    00:00:00.000                : en:1
    00:10:12.153                : en:2
    00:18:52.005                : en:3
    00:29:05.993                : en:4
    00:38:02.278                : en:5
    00:48:50.216                : en:6
    00:57:58.013                : en:7
    01:07:23.036                : en:8
    01:13:10.925                : en:9
    01:21:31.717                : en:10
    01:30:45.102                : en:11
    01:40:34.024                : en:12
    01:47:08.959                : en:13
    01:59:06.216                : en:14
    02:04:55.522                : en:15
    02:11:11.189                : en:16
    02:21:55.749                : en:17

     

  • Peso: 5.87 GiB

Sinopsis

The Goldfinch narra las peripecias de Theo Decker, un niño de 13 años que vive una experiencia traumática el día en que visitaba con su madre el Metropolitan Museum of Art de Nueva York. El museo sufre un atentado terrorista y como consecuencia su madre muere en él, pero Theo sobrevive. En medio de todo el caos, Theo decide robar un cuadro, ante la insistencia de un anciano moribundo. Se trata de ‘The Goldfinch’, una pintura de 1654, obra del pintor holandés Carel Fabritius.

Ficha técnica

  • Titulo original: The Goldfinch
  • Fecha de lanzamiento: 12-09-2019 (United States of America)
  • Director: John Crowley
  • Género: Drama

Video trailer de la película

Enlaces de descarga

Rip de Bluray

Descargar El jilguero (2019) WEB-DL 1080p Latino




Aportes de DPeliculasHDmega la pass es:dpeliculashdmega.org Aportes de CinemaniaHD la pass es:cinemaniahdd.com
Guardado en : Drama

Películas relacionadas

  • Blonde (2022) NF WEB-DL 1080p Latino

    Blonde (2022) NF WEB-DL 1080p Latino

    2022
    Blonde (2022) NF WEB-DL 1080p Latino

    2h 46m 2022

    Descargar Blonde (2022) NF WEB-DL 1080p Latino. Basada en el bestseller de la cinco veces finalista al...

    Director: Kristin Bree Calabrese

    Género: Drama

    Actores: Xavier Samuel

  • Infiniti (2022) Primera Temporada WEB-DL 1080p Latino

    Infiniti (2022) Primera Temporada WEB-DL 1080p Latino

    2022
    Infiniti (2022) Primera Temporada WEB-DL 1080p Latino

    0h 52m 2022

    La ISS, la Estación Espacial Internacional se ha quedado en silencio. La tripulación está en peligro....

    Director: Stéphane Pannetier

    Género: Drama

    Actores: Vlad Ivanov

  • Athena (2022) NF WEB-DL 1080p Latino

    Athena (2022) NF WEB-DL 1080p Latino

    2022
    Athena (2022) NF WEB-DL 1080p Latino

    1h 37m 2022

    Descargar Athena (2022) NF WEB-DL 1080p Latino. Horas después de la trágica muerte de su hermano menor...

    Director: Romain Gavras

    Género: Acción

    Actores: Tarek Haddaji

descargar El jilguero (2019) WEB-DL 1080p Latino WEBDL 1080p gratis, El jilguero (2019) WEB-DL 1080p Latino WEBDL mega 1 link, El jilguero (2019) WEB-DL 1080p Latino WEBDL pelicula completa, descargar El jilguero (2019) WEB-DL 1080p Latino WEBDL gratis en mega.

El jilguero (2019) WEB-DL 1080p Latino pelicula full hd, El jilguero (2019) WEB-DL 1080p Latino mega latino, El jilguero (2019) WEB-DL 1080p Latino 4k latino, El jilguero (2019) WEB-DL 1080p Latino pelicula completa, El jilguero (2019) WEB-DL 1080p Latino descargar gratis, descargar El jilguero (2019) WEB-DL 1080p Latino pelicula latino, El jilguero (2019) WEB-DL 1080p Latino 1 link mega, El jilguero (2019) WEB-DL 1080p Latino 1 link google drive, El jilguero (2019) WEB-DL 1080p Latino hd 1080p latino.
Comentarios 0