×

¿Problemas para descargar con Mozilla, EDGE? Deshabilita la opción "Abrir vinculos en una pestaña nueva" tal como lo muestra ésta imagen.

El Jardinero (2021) WEB-DL 1080p Latino

316 vistas

Información de El Jardinero (2021) WEB-DL 1080p Latino

Datos de la película

  • Calidad: WEBDL
  • Audio: Español Latino AC3 2.0 WEB-DL - Ingles AC3 5.1 WEB-DL
  • Subtitulos: Español Latino SRT- FORZADOS SRT
  • Resolución: 1912x812p
  • Formato: MKV
  • Codec: H.264
  • Encoder: Melkor
  • Mediainfo: Clic para Mostrar Datos Ver
  • El Jardinero (2021) WebDL 1080p Latino.mkv
    Format                      : Matroska
    Format version              : Version 4
    File size                   : 4.46 GiB
    Duration                    : 1 h 27 min
    Overall bit rate            : 7 260 kb/s
    Movie name                  : The Gardener (2021) CinemaniaHDD.Net
    Encoded date                : UTC 2022-09-18 06:20:01
    Writing application         : mkvmerge v56.1.0 ('My Friend') 64-bit
    Writing library             : libebml v1.4.2 + libmatroska v1.6.4
    Attachments                 : CINEMANIAHD.png

    Video
    ID                          : 1
    Format                      : AVC
    Format/Info                 : Advanced Video Codec
    Format profile              : High@L4
    Format settings             : CABAC / 5 Ref Frames
    Format settings, CABAC      : Yes
    Format settings, Reference  : 5 frames
    Codec ID                    : V_MPEG4/ISO/AVC
    Duration                    : 1 h 27 min
    Bit rate                    : 6 617 kb/s
    Width                       : 1 912 pixels
    Height                      : 812 pixels
    Display aspect ratio        : 2.35:1
    Frame rate mode             : Constant
    Frame rate                  : 23.976 (24000/1001) FPS
    Color space                 : YUV
    Chroma subsampling          : 4:2:0
    Bit depth                   : 8 bits
    Scan type                   : Progressive
    Bits/(Pixel*Frame)          : 0.178
    Stream size                 : 4.06 GiB (91%)
    Title                       : Web HD1080p [CinemaniaHDD]
    Default                     : Yes
    Forced                      : Yes
    Color range                 : Limited
    Color primaries             : BT.709
    Transfer characteristics    : BT.709
    Matrix coefficients         : BT.709

    Audio #1
    ID                          : 2
    Format                      : AC-3
    Format/Info                 : Audio Coding 3
    Commercial name             : Dolby Digital
    Codec ID                    : A_AC3
    Duration                    : 1 h 27 min
    Bit rate mode               : Constant
    Bit rate                    : 256 kb/s
    Channel(s)                  : 2 channels
    Channel layout              : L R
    Sampling rate               : 48.0 kHz
    Frame rate                  : 31.250 FPS (1536 SPF)
    Compression mode            : Lossy
    Stream size                 : 161 MiB (4%)
    Title                       : Español Latino [CinemaniaHDD]
    Language                    : Spanish
    Service kind                : Complete Main
    Default                     : Yes
    Forced                      : Yes

    Audio #2
    ID                          : 3
    Format                      : AC-3
    Format/Info                 : Audio Coding 3
    Commercial name             : Dolby Digital
    Codec ID                    : A_AC3
    Duration                    : 1 h 27 min
    Bit rate mode               : Constant
    Bit rate                    : 384 kb/s
    Channel(s)                  : 6 channels
    Channel layout              : L R C LFE Ls Rs
    Sampling rate               : 48.0 kHz
    Frame rate                  : 31.250 FPS (1536 SPF)
    Compression mode            : Lossy
    Stream size                 : 241 MiB (5%)
    Title                       : Ingles [CinemaniaHDD]
    Language                    : English
    Service kind                : Complete Main
    Default                     : No
    Forced                      : No

    Text #1
    ID                          : 4
    Format                      : UTF-8
    Codec ID                    : S_TEXT/UTF8
    Codec ID/Info               : UTF-8 Plain Text
    Duration                    : 1 h 22 min
    Bit rate                    : 0 b/s
    Count of elements           : 5
    Stream size                 : 93.0 Bytes (0%)
    Title                       : Forzados-SRT [CinemaniaHDD]
    Language                    : Spanish
    Default                     : Yes
    Forced                      : Yes

    Text #2
    ID                          : 5
    Format                      : UTF-8
    Codec ID                    : S_TEXT/UTF8
    Codec ID/Info               : UTF-8 Plain Text
    Duration                    : 1 h 25 min
    Bit rate                    : 36 b/s
    Count of elements           : 745
    Stream size                 : 22.7 KiB (0%)
    Title                       : Español-SRT [CinemaniaHDD]
    Language                    : Spanish
    Default                     : No
    Forced                      : No

    Text #3
    ID                          : 6
    Format                      : UTF-8
    Codec ID                    : S_TEXT/UTF8
    Codec ID/Info               : UTF-8 Plain Text
    Duration                    : 1 h 24 min
    Bit rate                    : 36 b/s
    Count of elements           : 786
    Stream size                 : 22.7 KiB (0%)
    Title                       : Ingles-SRT [CinemaniaHDD]
    Language                    : English
    Default                     : No
    Forced                      : No

  • Peso: 4.46 GiB

Sinopsis

Descargar El Jardinero (2021) WEB-DL 1080p Latino. Una familia adinerada con problemas se reúne en una pintoresca casa solariega para las vacaciones, sin sospechar nunca que el sanguinario y sádico Volker y su tripulación permanecen en las puertas, listos para atacar, robar y mutilarlos al anochecer.

Ficha técnica

Video trailer de la película

Enlaces de descarga

Rip de Bluray

Descargar El Jardinero (2021) WEB-DL 1080p Latino




Aportes de DPeliculasHDmega la pass es:dpeliculashdmega.org Aportes de CinemaniaHD la pass es:cinemaniahdd.com Aportes recientes:cinemaniahdd.net
Guardado en : Acción , Suspenso

Películas relacionadas

  • 57 Seconds (2023) AMZN WEB-DL 1080p Latino

    57 Seconds (2023) AMZN WEB-DL 1080p Latino

    2023
    57 Seconds (2023) AMZN WEB-DL 1080p Latino

    1h 39m 2023

    Cuando un blogger de tecnología consigue una entrevista con un gurú de la tecnología y detiene un...

    Director: Taylor DiMarco

    Género: Acción

    Actores: Valerie E. Lamb

  • The Bodyguard (1992) 1080p Latino-CMHDD

    The Bodyguard (1992) 1080p Latino-CMHDD

    1992
    The Bodyguard (1992) 1080p Latino-CMHDD

    2h 9m 1992

    Descargar The Bodyguard (1992) 1080p Latino-CMHDD. Una cantante famosa que recibe constantes cartas anónimas...

    Director: Mick Jackson

    Género: Acción

    Actores: Whitney Houston

  • The Bodyguard (1992) Full HD 1080p Latino-CMHDD

    The Bodyguard (1992) Full HD 1080p Latino-CMHDD

    1992
    The Bodyguard (1992) Full HD 1080p Latino-CMHDD

    2h 9m 1992

    Descargar The Bodyguard (1992) Full HD 1080p Latino-CMHDD. Una cantante famosa que recibe constantes...

    Director: Mick Jackson

    Género: Acción

    Actores: Whitney Houston

  • The Bodyguard (1992) REMUX 1080p Latino-CMHDD

    The Bodyguard (1992) REMUX 1080p Latino-CMHDD

    1992
    The Bodyguard (1992) REMUX 1080p Latino-CMHDD

    2h 9m 1992

    Descargar The Bodyguard (1992) REMUX 1080p Latino-CMHDD. Una cantante famosa que recibe constantes cartas...

    Director: Mick Jackson

    Género: Acción

    Actores: Whitney Houston

  • Jaque Mate (2024) AMZN 4K-HDR WEB-DL 2160p Latino

    Jaque Mate (2024) AMZN 4K-HDR WEB-DL 2160p Latino

    2024
    Jaque Mate (2024) AMZN 4K-HDR WEB-DL 2160p Latino

    1h 44m 2024

    Duque, un agente secreto internacional retirado hace años luego un traumático suceso, se ve obligado...

    Director: Jorge Nisco

    Género: 4K HDR

    Actores: Tsahi Halevi

descargar El Jardinero (2021) WEB-DL 1080p Latino WEBDL 1080p gratis, El Jardinero (2021) WEB-DL 1080p Latino WEBDL mega 1 link, El Jardinero (2021) WEB-DL 1080p Latino WEBDL pelicula completa, descargar El Jardinero (2021) WEB-DL 1080p Latino WEBDL gratis en mega.

El Jardinero (2021) WEB-DL 1080p Latino pelicula full hd, El Jardinero (2021) WEB-DL 1080p Latino mega latino, El Jardinero (2021) WEB-DL 1080p Latino 4k latino, El Jardinero (2021) WEB-DL 1080p Latino pelicula completa, El Jardinero (2021) WEB-DL 1080p Latino descargar gratis, descargar El Jardinero (2021) WEB-DL 1080p Latino pelicula latino, El Jardinero (2021) WEB-DL 1080p Latino 1 link mega, El Jardinero (2021) WEB-DL 1080p Latino 1 link google drive, El Jardinero (2021) WEB-DL 1080p Latino hd 1080p latino.
Comentarios 0