×

¿Problemas para descargar con Mozilla, EDGE? Deshabilita la opción "Abrir vinculos en una pestaña nueva" tal como lo muestra ésta imagen.

El jardín de bronce (2017) Temporada 1 WEB-DL 1080p Latino

1.557 vistas

Información de El jardín de bronce (2017) Temporada 1 WEB-DL 1080p Latino

sZZI8BkcGLIt8kurBwtstz1zAnE

Datos de la película

  • Calidad: WEBDL
  • Audio: Español Latino AC3 5.1
  • Subtitulos: Español Latino SRT - Ingles SRT
  • Resolución: 1920x1080
  • Formato: MKV
  • Codec: H.264
  • Encoder: cinemaniahdd
  • Mediainfo: Clic para Mostrar Datos Ver
  • El jardín de bronce (2017) S01E01 HBO WEB-DL 1080p Latino.mkv
    Format                      : Matroska
    Format version              : Version 4
    File size                   : 1.46 GiB
    Duration                    : 56 min 59 s
    Overall bit rate mode       : Variable
    Overall bit rate            : 3 675 kb/s
    Movie name                  : El jardín de bronce (2017) S01E01 - CinemaniaHDD,Net
    Encoded date                : UTC 2019-06-20 02:48:36
    Writing application         : mkvmerge v25.0.0 ('Prog Noir') 32-bit
    Writing library             : libebml v1.3.6 + libmatroska v1.4.9

    Video
    ID                          : 1
    Format                      : AVC
    Format/Info                 : Advanced Video Codec
    Format profile              : High@L4
    Format settings             : CABAC / 4 Ref Frames
    Format settings, CABAC      : Yes
    Format settings, ReFrames   : 4 frames
    Codec ID                    : V_MPEG4/ISO/AVC
    Duration                    : 56 min 59 s
    Bit rate mode               : Variable
    Bit rate                    : 3 289 kb/s
    Maximum bit rate            : 5 100 kb/s
    Width                       : 1 920 pixels
    Height                      : 1 080 pixels
    Display aspect ratio        : 16:9
    Frame rate mode             : Constant
    Frame rate                  : 25.000 FPS
    Color space                 : YUV
    Chroma subsampling          : 4:2:0
    Bit depth                   : 8 bits
    Scan type                   : Progressive
    Bits/(Pixel*Frame)          : 0.063
    Stream size                 : 1.31 GiB (89%)
    Title                       : CinemaniaHDD
    Default                     : Yes
    Forced                      : No

    Audio
    ID                          : 2
    Format                      : AC-3
    Format/Info                 : Audio Coding 3
    Commercial name             : Dolby Digital
    Codec ID                    : A_AC3
    Duration                    : 56 min 59 s
    Bit rate mode               : Constant
    Bit rate                    : 384 kb/s
    Channel(s)                  : 6 channels
    Channel layout              : L R C LFE Ls Rs
    Sampling rate               : 48.0 kHz
    Frame rate                  : 31.250 FPS (1536 SPF)
    Bit depth                   : 16 bits
    Compression mode            : Lossy
    Stream size                 : 157 MiB (10%)
    Title                       : Español latino [CinemaniaHDD]
    Language                    : Spanish
    Service kind                : Complete Main
    Default                     : No
    Forced                      : No

    Text
    ID                          : 3
    Format                      : UTF-8
    Codec ID                    : S_TEXT/UTF8
    Codec ID/Info               : UTF-8 Plain Text
    Duration                    : 54 min 47 s
    Bit rate                    : 58 b/s
    Count of elements           : 611
    Stream size                 : 23.5 KiB (0%)
    Title                       : Español latino [CinemaniaHDD]
    Language                    : Spanish
    Default                     : Yes
    Forced                      : No

  • Peso: 1.46 GiB Aprox ---- TOTAL 10.7 GiB ---- 8 Capitulos en total

Sinopsis

Una niña que va a un cumpleaños nunca llega a su destino. Sus padres comienzan la desesperante tarea de encontrarla, a pesar de que que su desaparición es un misterio y no hay ningún rastro de lo que parece sin duda un secuestro.

Ficha técnica

  • Titulo original: El jardín de bronce
  • Fecha de lanzamiento: 25-06-2017 (AR)
  • Género: Drama, Series

Video trailer de la película

Enlaces de descarga

Rip de Bluray

Descargar El jardín de bronce (2017) Temporada 1 WEB-DL 1080p Latino




Aportes de DPeliculasHDmega la pass es:dpeliculashdmega.org Aportes de CinemaniaHD la pass es:cinemaniahdd.com Aportes recientes:cinemaniahdd.net
Guardado en : Drama , Series

Películas relacionadas

descargar El jardín de bronce (2017) Temporada 1 WEB-DL 1080p Latino WEBDL 1080p gratis, El jardín de bronce (2017) Temporada 1 WEB-DL 1080p Latino WEBDL mega 1 link, El jardín de bronce (2017) Temporada 1 WEB-DL 1080p Latino WEBDL serie completa, descargar El jardín de bronce (2017) Temporada 1 WEB-DL 1080p Latino WEBDL gratis en mega.

El jardín de bronce (2017) Temporada 1 WEB-DL 1080p Latino pelicula full hd, El jardín de bronce (2017) Temporada 1 WEB-DL 1080p Latino mega latino, El jardín de bronce (2017) Temporada 1 WEB-DL 1080p Latino 4k latino, El jardín de bronce (2017) Temporada 1 WEB-DL 1080p Latino pelicula completa, El jardín de bronce (2017) Temporada 1 WEB-DL 1080p Latino descargar gratis, descargar El jardín de bronce (2017) Temporada 1 WEB-DL 1080p Latino pelicula latino, El jardín de bronce (2017) Temporada 1 WEB-DL 1080p Latino 1 link mega, El jardín de bronce (2017) Temporada 1 WEB-DL 1080p Latino 1 link google drive, El jardín de bronce (2017) Temporada 1 WEB-DL 1080p Latino hd 1080p latino.
Comentarios 0