×

¿Problemas para descargar con Mozilla, EDGE? Deshabilita la opción "Abrir vinculos en una pestaña nueva" tal como lo muestra ésta imagen.

El Invitado A La Boda (2018) HD 1080p Latino

164 vistas

Información de El Invitado A La Boda (2018) HD 1080p Latino

Datos de la película

  • Calidad: 1080p
  • Audio: Español Latino AC3 5.1 AMAZON - Ingles AC3 5.1 BLURAY
  • Subtitulos: Español Latino SRT- FORZADOS SRT
  • Resolución: 1920x804p
  • Formato: MKV
  • Codec: H.264
  • Encoder: Melkor
  • Mediainfo: Clic para Mostrar Datos Ver
  • El Invitado A La Boda (2018) HD 1080p Latino.mkv
    Format                      : Matroska
    Format version              : Version 4
    File size                   : 3.05 GiB
    Duration                    : 1 h 36 min
    Overall bit rate            : 4 518 kb/s
    Movie name                  : The Wedding Guest (2018) CinemaniaHDD.Net
    Encoded date                : UTC 2021-05-27 04:37:54
    Writing application         : mkvmerge v56.1.0 ('My Friend') 64-bit
    Writing library             : libebml v1.4.2 + libmatroska v1.6.4
    Attachments                 : CINEMANIAHD.png

    Video
    ID                          : 1
    Format                      : AVC
    Format/Info                 : Advanced Video Codec
    Format profile              : High@L4.1
    Format settings             : CABAC / 5 Ref Frames
    Format settings, CABAC      : Yes
    Format settings, Reference  : 5 frames
    Codec ID                    : V_MPEG4/ISO/AVC
    Duration                    : 1 h 36 min
    Bit rate                    : 3 500 kb/s
    Width                       : 1 920 pixels
    Height                      : 804 pixels
    Display aspect ratio        : 2.40:1
    Frame rate mode             : Constant
    Frame rate                  : 23.976 (24000/1001) FPS
    Color space                 : YUV
    Chroma subsampling          : 4:2:0
    Bit depth                   : 8 bits
    Scan type                   : Progressive
    Bits/(Pixel*Frame)          : 0.095
    Stream size                 : 2.31 GiB (76%)
    Title                       : HD1080p [CinemaniaHDD]
    Writing library             : x264 core 157 r2935 545de2f
    Encoding settings           : cabac=1 / ref=5 / deblock=1:-1:-1 / analyse=0x3:0x133 / me=umh / subme=9 / psy=1 / psy_rd=1.00:0.15 / mixed_ref=1 / me_range=16 / chroma_me=1 / trellis=2 / 8x8dct=1 / cqm=0 / deadzone=21,11 / fast_pskip=1 / chroma_qp_offset=-3 / threads=24 / lookahead_threads=2 / sliced_threads=0 / nr=0 / decimate=1 / interlaced=0 / bluray_compat=0 / constrained_intra=0 / bframes=3 / b_pyramid=2 / b_adapt=2 / b_bias=0 / direct=3 / weightb=1 / open_gop=0 / weightp=2 / keyint=240 / keyint_min=24 / scenecut=40 / intra_refresh=0 / rc_lookahead=60 / rc=abr / mbtree=1 / bitrate=3500 / ratetol=1.0 / qcomp=0.60 / qpmin=0 / qpmax=69 / qpstep=4 / vbv_maxrate=62500 / vbv_bufsize=78125 / nal_hrd=none / filler=0 / ip_ratio=1.40 / aq=1:1.00
    Default                     : Yes
    Forced                      : No
    Color range                 : Limited
    Color primaries             : BT.709
    Transfer characteristics    : BT.709
    Matrix coefficients         : BT.709

    Audio #1
    ID                          : 2
    Format                      : AC-3
    Format/Info                 : Audio Coding 3
    Commercial name             : Dolby Digital
    Codec ID                    : A_AC3
    Duration                    : 1 h 36 min
    Bit rate mode               : Constant
    Bit rate                    : 640 kb/s
    Channel(s)                  : 6 channels
    Channel layout              : L R C LFE Ls Rs
    Sampling rate               : 48.0 kHz
    Frame rate                  : 31.250 FPS (1536 SPF)
    Compression mode            : Lossy
    Delay relative to video     : -5 ms
    Stream size                 : 442 MiB (14%)
    Title                       : Español Latino [CinemaniaHDD]
    Language                    : Spanish
    Service kind                : Complete Main
    Default                     : Yes
    Forced                      : Yes

    Audio #2
    ID                          : 3
    Format                      : AC-3
    Format/Info                 : Audio Coding 3
    Commercial name             : Dolby Digital
    Codec ID                    : A_AC3
    Duration                    : 1 h 36 min
    Bit rate mode               : Constant
    Bit rate                    : 448 kb/s
    Channel(s)                  : 6 channels
    Channel layout              : L R C LFE Ls Rs
    Sampling rate               : 48.0 kHz
    Frame rate                  : 31.250 FPS (1536 SPF)
    Compression mode            : Lossy
    Delay relative to video     : -5 ms
    Stream size                 : 310 MiB (10%)
    Title                       : Ingles [CinemaniaHDD]
    Language                    : English
    Service kind                : Complete Main
    Default                     : No
    Forced                      : No

    Text #1
    ID                          : 4
    Format                      : UTF-8
    Codec ID                    : S_TEXT/UTF8
    Codec ID/Info               : UTF-8 Plain Text
    Duration                    : 1 h 13 min
    Bit rate                    : 0 b/s
    Count of elements           : 13
    Stream size                 : 395 Bytes (0%)
    Title                       : Forzados-SRT [CinemaniaHDD]
    Language                    : Spanish
    Default                     : Yes
    Forced                      : Yes

    Text #2
    ID                          : 5
    Format                      : UTF-8
    Codec ID                    : S_TEXT/UTF8
    Codec ID/Info               : UTF-8 Plain Text
    Duration                    : 1 h 35 min
    Bit rate                    : 30 b/s
    Count of elements           : 767
    Stream size                 : 21.0 KiB (0%)
    Title                       : Español-SRT [CinemaniaHDD]
    Language                    : Spanish
    Default                     : No
    Forced                      : No

    Text #3
    ID                          : 6
    Format                      : UTF-8
    Codec ID                    : S_TEXT/UTF8
    Codec ID/Info               : UTF-8 Plain Text
    Duration                    : 1 h 31 min
    Bit rate                    : 33 b/s
    Count of elements           : 863
    Stream size                 : 22.3 KiB (0%)
    Title                       : Ingles-SRT [CinemaniaHDD]
    Language                    : English
    Default                     : No
    Forced                      : No

    Menu
    00:00:00.000                : Chapter 1
    00:07:13.475                : Chapter 2
    00:15:32.056                : Chapter 3
    00:24:01.190                : Chapter 4
    00:33:15.285                : Chapter 5
    00:39:54.767                : Chapter 6
    00:47:04.530                : Chapter 7
    00:55:17.231                : Chapter 8
    01:05:21.167                : Chapter 9
    01:13:59.352                : Chapter 10
    01:19:52.913                : Chapter 11
    01:31:10.674                : Chapter 12

  • Peso: 3.05 GiB

Sinopsis

Descargar El Invitado A La Boda (2018) HD 1080p Latino. Un misterioso hombre, británico y musulmán, llega a la India con el propósito de acudir a una boda. Antes de acudir al evento, el sujeto decide hacer unas compras un poco inusuales: un par de armas que le acompañen en su viaje. En la noche previa al enlace, el hombre secuestra a la prometida aunque, inesperadamente, esta no desea casarse. La nueva pareja comenzará un viaje a contrarreloj por India y Pakistán cuyo destino es la libertad.

Ficha técnica

Video trailer de la película

Enlaces de descarga

Rip de Bluray

Descargar El Invitado A La Boda (2018) HD 1080p Latino




Aportes de DPeliculasHDmega la pass es:dpeliculashdmega.org Aportes de CinemaniaHD la pass es:cinemaniahdd.com
Guardado en : HD 1080p , Suspenso

Películas relacionadas

descargar El Invitado A La Boda (2018) HD 1080p Latino 1080p 1080p gratis, El Invitado A La Boda (2018) HD 1080p Latino 1080p mega 1 link, El Invitado A La Boda (2018) HD 1080p Latino 1080p pelicula completa, descargar El Invitado A La Boda (2018) HD 1080p Latino 1080p gratis en mega.

El Invitado A La Boda (2018) HD 1080p Latino pelicula full hd, El Invitado A La Boda (2018) HD 1080p Latino mega latino, El Invitado A La Boda (2018) HD 1080p Latino 4k latino, El Invitado A La Boda (2018) HD 1080p Latino pelicula completa, El Invitado A La Boda (2018) HD 1080p Latino descargar gratis, descargar El Invitado A La Boda (2018) HD 1080p Latino pelicula latino, El Invitado A La Boda (2018) HD 1080p Latino 1 link mega, El Invitado A La Boda (2018) HD 1080p Latino 1 link google drive, El Invitado A La Boda (2018) HD 1080p Latino hd 1080p latino.
Comentarios 0