El infiltrado del KKKlan (2018) Full 1080p Latino

1.089 vistas
1 estrella2 estrellas3 estrellas4 estrellas5 estrellas (2 votos, promedio: 5,00 de 5)
Cargando…

Información de El infiltrado del KKKlan (2018) Full 1080p Latino

Datos de la película

  • Calidad: Full 1080p
  • Audio: Español Latino AC3 5.1 BLURAY - Ingles AC3 5.1 BLURAY
  • Subtitulos: Español Latino PGS - Ingles PGS
  • Resolución: 1920x1080p
  • Formato: MKV
  • Codec: H.264
  • Encoder: Dracarys
  • Mediainfo: Clic para Mostrar Datos Ver
  • Format                                   : Matroska
    Format version                           : Version 4 / Version 2
    File size                                : 6.29 GiB
    Duration                                 : 2 h 14 min
    Overall bit rate                         : 6 674 kb/s
    Movie name                               : CinemaniaHDD.net
    Encoded date                             : UTC 2018-11-13 02:28:14 / UTC 2018-11-07T20:25:51Z
    Writing application                      : mkvmerge v15.0.0 ('Duel with the Devil') 64-bit
    Writing library                          : libebml v1.3.5 + libmatroska v1.4.5 / Lavf57.7.2

    Video
    ID                                       : 1
    Format                                   : AVC
    Format/Info                              : Advanced Video Codec
    Format profile                           : High@L4.1
    Format settings                          : CABAC / 4 Ref Frames
    Format settings, CABAC                   : Yes
    Format settings, RefFrames               : 4 frames
    Codec ID                                 : V_MPEG4/ISO/AVC
    Duration                                 : 2 h 14 min
    Bit rate                                 : 5 453 kb/s
    Width                                    : 1 920 pixels
    Height                                   : 1 080 pixels
    Display aspect ratio                     : 16:9
    Frame rate mode                          : Constant
    Frame rate                               : 23.976 (24000/1001) FPS
    Color space                              : YUV
    Chroma subsampling                       : 4:2:0
    Bit depth                                : 8 bits
    Scan type                                : Progressive
    Bits/(Pixel*Frame)                       : 0.110
    Stream size                              : 5.14 GiB (82%)
    Writing library                          : x264 core 148 r2708 86b7198
    Encoding settings                        : cabac=1 / ref=4 / deblock=1:0:0 / analyse=0x3:0x133 / me=esa / subme=10 / psy=1 / psy_rd=1.00:0.00 / mixed_ref=1 / me_range=24 / chroma_me=1 / trellis=2 / 8x8dct=1 / cqm=0 / deadzone=21,11 / fast_pskip=1 / chroma_qp_offset=-2 / threads=34 / lookahead_threads=5 / sliced_threads=0 / nr=0 / decimate=1 / interlaced=0 / bluray_compat=0 / constrained_intra=0 / bframes=8 / b_pyramid=2 / b_adapt=2 / b_bias=0 / direct=3 / weightb=1 / open_gop=0 / weightp=2 / keyint=240 / keyint_min=24 / scenecut=40 / intra_refresh=0 / rc_lookahead=60 / rc=crf / mbtree=1 / crf=20.0 / qcomp=0.60 / qpmin=0 / qpmax=69 / qpstep=4 / vbv_maxrate=62500 / vbv_bufsize=78125 / crf_max=0.0 / nal_hrd=none / filler=0 / ip_ratio=1.40 / aq=1:1.00
    Language                                 : English
    Default                                  : Yes
    Forced                                   : No
    Color range                              : Limited
    Color primaries                          : BT.709
    Transfer characteristics                 : BT.709
    Matrix coefficients                      : BT.709
    Statistics Tags Issue                    : mkvmerge v15.0.0 ('Duel with the Devil') 64-bit 2018-11-13 02:28:14 / mkvmerge v15.0.0 ('Duel with the Devil') 64-bit 2018-11-13 02:28:14 / UTC 2018-11-07T20:25:51Z
    FromStats_BitRate                        : 5550034
    FromStats_Duration                       : 02:14:49.081000000
    FromStats_FrameCount                     : 193944
    FromStats_StreamSize                     : 5611834424

    Audio #1
    ID                                       : 2
    Format                                   : AC-3
    Format/Info                              : Audio Coding 3
    Format settings, Endianness              : Big
    Codec ID                                 : A_AC3
    Duration                                 : 2 h 14 min
    Bit rate mode                            : Constant
    Bit rate                                 : 640 kb/s
    Channel(s)                               : 6 channels
    Channel positions                        : Front: L C R, Side: L R, LFE
    Sampling rate                            : 48.0 kHz
    Frame rate                               : 31.250 FPS (1536 SPF)
    Bit depth                                : 16 bits
    Compression mode                         : Lossy
    Stream size                              : 617 MiB (10%)
    Language                                 : Spanish
    Service kind                             : Complete Main
    Default                                  : Yes
    Forced                                   : No
    Statistics Tags Issue                    : mkvmerge v15.0.0 ('Duel with the Devil') 64-bit 2018-11-13 02:28:14 / mkvmerge v15.0.0 ('Duel with the Devil') 64-bit 2018-11-13 02:28:14 / UTC 2018-11-07T20:25:51Z
    FromStats_BitRate                        : 640000
    FromStats_Duration                       : 02:14:49.088000000
    FromStats_FrameCount                     : 252784
    FromStats_StreamSize                     : 647127040

    Audio #2
    ID                                       : 3
    Format                                   : AC-3
    Format/Info                              : Audio Coding 3
    Format settings, Endianness              : Big
    Codec ID                                 : A_AC3
    Duration                                 : 2 h 14 min
    Bit rate mode                            : Constant
    Bit rate                                 : 448 kb/s
    Channel(s)                               : 6 channels
    Channel positions                        : Front: L C R, Side: L R, LFE
    Sampling rate                            : 48.0 kHz
    Frame rate                               : 31.250 FPS (1536 SPF)
    Bit depth                                : 16 bits
    Compression mode                         : Lossy
    Stream size                              : 432 MiB (7%)
    Language                                 : English
    Service kind                             : Complete Main
    Default                                  : No
    Forced                                   : No
    Statistics Tags Issue                    : mkvmerge v15.0.0 ('Duel with the Devil') 64-bit 2018-11-13 02:28:14 / mkvmerge v15.0.0 ('Duel with the Devil') 64-bit 2018-11-13 02:28:14 / UTC 2018-11-07T20:25:51Z
    FromStats_BitRate                        : 448000
    FromStats_Duration                       : 02:14:49.088000000
    FromStats_FrameCount                     : 252784
    FromStats_StreamSize                     : 452988928

    Text #1
    ID                                       : 4
    Format                                   : PGS
    Muxing mode                              : zlib
    Codec ID                                 : S_HDMV/PGS
    Codec ID/Info                            : Picture based subtitle format used on BDs/HD-DVDs
    Language                                 : English
    Default                                  : No
    Forced                                   : No
    Statistics Tags Issue                    : mkvmerge v15.0.0 ('Duel with the Devil') 64-bit 2018-11-13 02:28:14 / mkvmerge v15.0.0 ('Duel with the Devil') 64-bit 2018-11-13 02:28:14 / UTC 2018-11-07T20:25:51Z
    FromStats_BitRate                        : 60713
    FromStats_Duration                       : 02:08:22.320000000
    FromStats_FrameCount                     : 5274
    FromStats_StreamSize                     : 58454119

    Text #2
    ID                                       : 5
    Format                                   : PGS
    Muxing mode                              : zlib
    Codec ID                                 : S_HDMV/PGS
    Codec ID/Info                            : Picture based subtitle format used on BDs/HD-DVDs
    Language                                 : Spanish
    Default                                  : No
    Forced                                   : No
    Statistics Tags Issue                    : mkvmerge v15.0.0 ('Duel with the Devil') 64-bit 2018-11-13 02:28:14 / mkvmerge v15.0.0 ('Duel with the Devil') 64-bit 2018-11-13 02:28:14 / UTC 2018-11-07T20:25:51Z
    FromStats_BitRate                        : 54216
    FromStats_Duration                       : 02:13:08.731000000
    FromStats_FrameCount                     : 5310
    FromStats_StreamSize                     : 54139883

    Text #3
    ID                                       : 6
    Format                                   : PGS
    Muxing mode                              : zlib
    Codec ID                                 : S_HDMV/PGS
    Codec ID/Info                            : Picture based subtitle format used on BDs/HD-DVDs
    Title                                    : Forzados
    Language                                 : Spanish
    Default                                  : Yes
    Forced                                   : Yes
    Statistics Tags Issue                    : mkvmerge v15.0.0 ('Duel with the Devil') 64-bit 2018-11-13 02:28:14 / mkvmerge v15.0.0 ('Duel with the Devil') 64-bit 2018-11-13 02:28:14 / UTC 2018-11-07T20:25:51Z
    FromStats_BitRate                        : 1374
    FromStats_Duration                       : 02:12:34.530000000
    FromStats_FrameCount                     : 116
    FromStats_StreamSize                     : 1366846

    Menu
    00:00:00.000                             : :Chapter 1
    00:04:10.250                             : :Chapter 2
    00:13:54.876                             : :Chapter 3
    00:23:16.604                             : :Chapter 4
    00:27:56.508                             : :Chapter 5
    00:36:10.669                             : :Chapter 6
    00:43:21.557                             : :Chapter 7
    00:48:30.616                             : :Chapter 8
    00:54:58.629                             : :Chapter 9
    00:59:48.543                             : :Chapter 10
    01:07:04.771                             : :Chapter 11
    01:16:37.802                             : :Chapter 12
    01:22:20.394                             : :Chapter 13
    01:29:38.123                             : :Chapter 14
    01:39:10.653                             : :Chapter 15
    01:48:27.042                             : :Chapter 16
    01:56:05.584                             : :Chapter 17
    02:00:43.945                             : :Chapter 18
    02:03:57.430                             : :Chapter 19
    02:09:03.277                             : :Chapter 20

     

  • Peso: 6.29 GiB

Sinopsis

A principios de los años setenta, una época de gran agitación social con la encarnizada lucha por los derechos civiles como telón de fondo, Ron Stallworth se convierte en el primer detective negro del departamento de policía de Colorado Springs, pero es recibido con escepticismo y hostilidad por los mandos y los agentes. Sin amedrentarse, decide seguir adelante y hacer algo por su comunidad llevando a cabo una misión muy peligrosa: infiltrarse en el Ku Klux Klan y exponerlo ante la ciudad.

 

 

Ahora Puedes Descargar Por Torrent 😉

Ficha técnica

Video trailer de la película

Enlaces de descarga

Rip de Bluray

Descargar El infiltrado del KKKlan (2018) Full 1080p Latino




Aportes de DPeliculasHDmega la pass es:dpeliculashdmega.org Aportes de CinemaniaHD la pass es:cinemaniahdd.com

Películas relacionadas

  • Roma (2018) Web-DL 1080p Latino

    2018
    Roma (2018) Web-DL 1080p Latino

    3.7 2h 14m 2018

    Descargar Roma (2018) Web-DL 1080p Latino, Mega, Google Drive, Torrent. Cleo (Yalitza Aparicio) es la...

    Director: Natalia Moguel

    Género: Drama

    Actores: Zarela Lizbeth Chinolla Arellano

  • Godzilla (2014) 1080p Latino

    2014
    Godzilla (2014) 1080p Latino

    0.0 2h 3m 2014

    Descargar Godzilla (2014) 1080p Latino, Mega, Google Drive, Torrent. Gareth Edwards dirige este "reboot",...

    Director: Jessica Clothier

    Género: Acción

    Actores: Yuki Morita

  • Godzilla (2014) Full 1080p Latino

    2014
    Godzilla (2014) Full 1080p Latino

    4.2 2h 3m 2014

    Descargar Godzilla (2014) Full 1080p Latino, Mega, Google Drive, Torrent. Gareth Edwards dirige este...

    Director: Jessica Clothier

    Género: Acción

    Actores: Yuki Morita

Comentarios 0